  0
SECTION
  2
HEADER
  9
$ACADVER
  1
AC1018
  9
$ACADMAINTVER
 70
   104
  9
$DWGCODEPAGE
  3
ANSI_1252
  9
$LASTSAVEDBY
  1
Dennis
  9
$INSBASE
 10
0.0
 20
0.0
 30
0.0
  9
$EXTMIN
 10
2854.406468112753
 20
41826.32283288247
 30
-0.0015258207003583
  9
$EXTMAX
 10
4185.99396192024
 20
43348.68041590401
 30
0.0000000349246037
  9
$LIMMIN
 10
7745.235280411311
 20
45170.57018819427
  9
$LIMMAX
 10
8688.370072504804
 20
45763.99103806643
  9
$ORTHOMODE
 70
     0
  9
$REGENMODE
 70
     1
  9
$FILLMODE
 70
     1
  9
$QTEXTMODE
 70
     0
  9
$MIRRTEXT
 70
     0
  9
$LTSCALE
 40
1.0
  9
$ATTMODE
 70
     1
  9
$TEXTSIZE
 40
17.5
  9
$TRACEWID
 40
300.0
  9
$TEXTSTYLE
  7
7
  9
$CLAYER
  8
Text
  9
$CELTYPE
  6
BYLAYER
  9
$CECOLOR
 62
   256
  9
$CELTSCALE
 40
1.0
  9
$DISPSILH
 70
     0
  9
$DIMSCALE
 40
7.0
  9
$DIMASZ
 40
3.0
  9
$DIMEXO
 40
1.0
  9
$DIMDLI
 40
1.0
  9
$DIMRND
 40
0.0
  9
$DIMDLE
 40
0.0
  9
$DIMEXE
 40
1.0
  9
$DIMTP
 40
0.0
  9
$DIMTM
 40
0.0
  9
$DIMTXT
 40
17.5
  9
$DIMCEN
 40
0.09
  9
$DIMTSZ
 40
0.0
  9
$DIMTOL
 70
     0
  9
$DIMLIM
 70
     0
  9
$DIMTIH
 70
     0
  9
$DIMTOH
 70
     0
  9
$DIMSE1
 70
     0
  9
$DIMSE2
 70
     0
  9
$DIMTAD
 70
     1
  9
$DIMZIN
 70
     0
  9
$DIMBLK
  1

  9
$DIMASO
 70
     1
  9
$DIMSHO
 70
     1
  9
$DIMPOST
  1

  9
$DIMAPOST
  1

  9
$DIMALT
 70
     0
  9
$DIMALTD
 70
     2
  9
$DIMALTF
 40
25.4
  9
$DIMLFAC
 40
1.0
  9
$DIMTOFL
 70
     0
  9
$DIMTVP
 40
0.0
  9
$DIMTIX
 70
     0
  9
$DIMSOXD
 70
     0
  9
$DIMSAH
 70
     0
  9
$DIMBLK1
  1

  9
$DIMBLK2
  1

  9
$DIMSTYLE
  2
Dim 7
  9
$DIMCLRD
 70
     7
  9
$DIMCLRE
 70
     7
  9
$DIMCLRT
 70
     7
  9
$DIMTFAC
 40
1.0
  9
$DIMGAP
 40
1.0
  9
$DIMJUST
 70
     0
  9
$DIMSD1
 70
     0
  9
$DIMSD2
 70
     0
  9
$DIMTOLJ
 70
     1
  9
$DIMTZIN
 70
     0
  9
$DIMALTZ
 70
     0
  9
$DIMALTTZ
 70
     0
  9
$DIMUPT
 70
     0
  9
$DIMDEC
 70
     0
  9
$DIMTDEC
 70
     0
  9
$DIMALTU
 70
     2
  9
$DIMALTTD
 70
     2
  9
$DIMTXSTY
  7
7
  9
$DIMAUNIT
 70
     0
  9
$DIMADEC
 70
     0
  9
$DIMALTRND
 40
0.0
  9
$DIMAZIN
 70
     0
  9
$DIMDSEP
 70
    46
  9
$DIMATFIT
 70
     3
  9
$DIMFRAC
 70
     0
  9
$DIMLDRBLK
  1

  9
$DIMLUNIT
 70
     2
  9
$DIMLWD
 70
    -2
  9
$DIMLWE
 70
    -2
  9
$DIMTMOVE
 70
     0
  9
$LUNITS
 70
     2
  9
$LUPREC
 70
     1
  9
$SKETCHINC
 40
100.0
  9
$FILLETRAD
 40
0.0
  9
$AUNITS
 70
     0
  9
$AUPREC
 70
     1
  9
$MENU
  1
ACAD
  9
$ELEVATION
 40
0.0
  9
$PELEVATION
 40
0.0
  9
$THICKNESS
 40
0.0
  9
$LIMCHECK
 70
     0
  9
$CHAMFERA
 40
0.0
  9
$CHAMFERB
 40
0.0
  9
$CHAMFERC
 40
0.0
  9
$CHAMFERD
 40
0.0
  9
$SKPOLY
 70
     1
  9
$TDCREATE
 40
2452452.799518588
  9
$TDUCREATE
 40
2452452.257851922
  9
$TDUPDATE
 40
2457470.694732813
  9
$TDUUPDATE
 40
2457470.153066146
  9
$TDINDWG
 40
1.2206243171
  9
$TDUSRTIMER
 40
1.2206243171
  9
$USRTIMER
 70
     1
  9
$ANGBASE
 50
0.0
  9
$ANGDIR
 70
     0
  9
$PDMODE
 70
     0
  9
$PDSIZE
 40
10.0
  9
$PLINEWID
 40
0.0
  9
$SPLFRAME
 70
     0
  9
$SPLINETYPE
 70
     6
  9
$SPLINESEGS
 70
     8
  9
$HANDSEED
  5
95A6
  9
$SURFTAB1
 70
     9
  9
$SURFTAB2
 70
     6
  9
$SURFTYPE
 70
     6
  9
$SURFU
 70
     6
  9
$SURFV
 70
     6
  9
$UCSBASE
  2

  9
$UCSNAME
  2

  9
$UCSORG
 10
0.0
 20
0.0
 30
0.0
  9
$UCSXDIR
 10
1.0
 20
0.0
 30
0.0
  9
$UCSYDIR
 10
0.0
 20
1.0
 30
0.0
  9
$UCSORTHOREF
  2

  9
$UCSORTHOVIEW
 70
     0
  9
$UCSORGTOP
 10
0.0
 20
0.0
 30
0.0
  9
$UCSORGBOTTOM
 10
0.0
 20
0.0
 30
0.0
  9
$UCSORGLEFT
 10
0.0
 20
0.0
 30
0.0
  9
$UCSORGRIGHT
 10
0.0
 20
0.0
 30
0.0
  9
$UCSORGFRONT
 10
0.0
 20
0.0
 30
0.0
  9
$UCSORGBACK
 10
0.0
 20
0.0
 30
0.0
  9
$PUCSBASE
  2

  9
$PUCSNAME
  2

  9
$PUCSORG
 10
0.0
 20
0.0
 30
0.0
  9
$PUCSXDIR
 10
1.0
 20
0.0
 30
0.0
  9
$PUCSYDIR
 10
0.0
 20
1.0
 30
0.0
  9
$PUCSORTHOREF
  2

  9
$PUCSORTHOVIEW
 70
     0
  9
$PUCSORGTOP
 10
0.0
 20
0.0
 30
0.0
  9
$PUCSORGBOTTOM
 10
0.0
 20
0.0
 30
0.0
  9
$PUCSORGLEFT
 10
0.0
 20
0.0
 30
0.0
  9
$PUCSORGRIGHT
 10
0.0
 20
0.0
 30
0.0
  9
$PUCSORGFRONT
 10
0.0
 20
0.0
 30
0.0
  9
$PUCSORGBACK
 10
0.0
 20
0.0
 30
0.0
  9
$USERI1
 70
    11
  9
$USERI2
 70
   110
  9
$USERI3
 70
     1
  9
$USERI4
 70
   250
  9
$USERI5
 70
   280
  9
$USERR1
 40
100.0
  9
$USERR2
 40
450.0
  9
$USERR3
 40
1.0
  9
$USERR4
 40
0.0
  9
$USERR5
 40
0.0
  9
$WORLDVIEW
 70
     0
  9
$SHADEDGE
 70
     3
  9
$SHADEDIF
 70
    70
  9
$TILEMODE
 70
     1
  9
$MAXACTVP
 70
    16
  9
$PINSBASE
 10
0.0
 20
0.0
 30
0.0
  9
$PLIMCHECK
 70
     0
  9
$PEXTMIN
 10
-9.445861934423191
 20
408.7933291966512
 30
0.0
  9
$PEXTMAX
 10
180.7327166840307
 20
685.3963846707418
 30
0.0
  9
$PLIMMIN
 10
-21.31373901966532
 20
398.1466391030053
  9
$PLIMMAX
 10
188.6595886170535
 20
695.1784689369897
  9
$UNITMODE
 70
     0
  9
$VISRETAIN
 70
     0
  9
$PLINEGEN
 70
     0
  9
$PSLTSCALE
 70
     0
  9
$TREEDEPTH
 70
     0
  9
$CMLSTYLE
  2
STANDARD
  9
$CMLJUST
 70
     0
  9
$CMLSCALE
 40
1.0
  9
$PROXYGRAPHICS
 70
     1
  9
$MEASUREMENT
 70
     0
  9
$CELWEIGHT
370
    -1
  9
$ENDCAPS
280
     0
  9
$JOINSTYLE
280
     0
  9
$LWDISPLAY
290
     1
  9
$INSUNITS
 70
     0
  9
$HYPERLINKBASE
  1

  9
$STYLESHEET
  1
Hebel monochrome.ctb
  9
$XEDIT
290
     1
  9
$CEPSNTYPE
380
     0
  9
$PSTYLEMODE
290
     1
  9
$FINGERPRINTGUID
  2
{563ABA43-34A0-4C26-9C44-B165A630EF25}
  9
$VERSIONGUID
  2
{28DC4AE3-6278-406E-A70B-4D2030CE6A98}
  9
$EXTNAMES
290
     1
  9
$PSVPSCALE
 40
0.0
  9
$OLESTARTUP
290
     0
  9
$SORTENTS
280
   127
  9
$INDEXCTL
280
     0
  9
$HIDETEXT
280
     0
  9
$XCLIPFRAME
290
     0
  9
$HALOGAP
280
     0
  9
$OBSCOLOR
 70
   257
  9
$OBSLTYPE
280
     0
  9
$INTERSECTIONDISPLAY
280
     0
  9
$INTERSECTIONCOLOR
 70
   257
  9
$DIMASSOC
280
     2
  9
$PROJECTNAME
  1

  0
ENDSEC
  0
SECTION
  2
CLASSES
  0
CLASS
  1
DICTIONARYVAR
  2
AcDbDictionaryVar
  3
ObjectDBX Classes
 90
        0
 91
        6
280
     0
281
     0
  0
CLASS
  1
RASTERVARIABLES
  2
AcDbRasterVariables
  3
ISM
 90
        0
 91
        1
280
     0
281
     0
  0
CLASS
  1
ACDBDICTIONARYWDFLT
  2
AcDbDictionaryWithDefault
  3
ObjectDBX Classes
 90
        0
 91
        1
280
     0
281
     0
  0
CLASS
  1
DIMASSOC
  2
AcDbDimAssoc
  3
"AcDbDimAssoc|Product Desc:     AcDim ARX App For Dimension|Company:          Autodesk, Inc.|WEB Address:      www.autodesk.com"
 90
        0
 91
        2
280
     0
281
     0
  0
CLASS
  1
MATERIAL
  2
AcDbMaterial
  3
ObjectDBX Classes
 90
     1153
 91
        3
280
     0
281
     0
  0
CLASS
  1
VISUALSTYLE
  2
AcDbVisualStyle
  3
ObjectDBX Classes
 90
     4095
 91
       26
280
     0
281
     0
  0
CLASS
  1
TABLESTYLE
  2
AcDbTableStyle
  3
ObjectDBX Classes
 90
     4095
 91
        1
280
     0
281
     0
  0
CLASS
  1
SCALE
  2
AcDbScale
  3
ObjectDBX Classes
 90
     1153
 91
       33
280
     0
281
     0
  0
CLASS
  1
MLEADERSTYLE
  2
AcDbMLeaderStyle
  3
ACDB_MLEADERSTYLE_CLASS
 90
     4095
 91
        1
280
     0
281
     0
  0
CLASS
  1
EXACXREFPANELOBJECT
  2
ExAcXREFPanelObject
  3
EXAC_ESW
 90
     1025
 91
        1
280
     0
281
     0
  0
CLASS
  1
NPOCOLLECTION
  2
AcDbImpNonPersistentObjectsCollection
  3
ObjectDBX Classes
 90
     1153
 91
        1
280
     0
281
     0
  0
CLASS
  1
CELLSTYLEMAP
  2
AcDbCellStyleMap
  3
ObjectDBX Classes
 90
     1152
 91
        3
280
     0
281
     0
  0
CLASS
  1
IMAGE
  2
AcDbRasterImage
  3
ISM
 90
     2175
 91
        4
280
     0
281
     1
  0
CLASS
  1
IMAGEDEF_REACTOR
  2
AcDbRasterImageDefReactor
  3
ISM
 90
        1
 91
        4
280
     0
281
     0
  0
CLASS
  1
SORTENTSTABLE
  2
AcDbSortentsTable
  3
ObjectDBX Classes
 90
        0
 91
        6
280
     0
281
     0
  0
CLASS
  1
IMAGEDEF
  2
AcDbRasterImageDef
  3
ISM
 90
        0
 91
        4
280
     0
281
     0
  0
CLASS
  1
AEC_REFEDIT_STATUS_TRACKER
  2
AecDbRefEditStatusTracker
  3
AecArchBase50|Product Desc: Autodesk Architectural Desktop 2007 |Company: Autodesk,Inc. |WEB Address: www.autodesk.com
 90
      129
 91
        0
280
     0
281
     0
  0
CLASS
  1
ACDBSECTIONVIEWSTYLE
  2
AcDbSectionViewStyle
  3
ObjectDBX Classes
 90
     1025
 91
        1
280
     0
281
     0
  0
CLASS
  1
ACDBDETAILVIEWSTYLE
  2
AcDbDetailViewStyle
  3
ObjectDBX Classes
 90
     1025
 91
        1
280
     0
281
     0
  0
ENDSEC
  0
SECTION
  2
TABLES
  0
TABLE
  2
VPORT
  5
55B
102
{ACAD_XDICTIONARY
360
2FC5
102
}
330
0
100
AcDbSymbolTable
 70
     1
  0
VPORT
  5
2F34
330
55B
100
AcDbSymbolTableRecord
100
AcDbViewportTableRecord
  2
*Active
 70
     0
 10
0.0
 20
0.0
 11
1.0
 21
1.0
 12
-19667.34194734572
 22
8726.706477476419
 13
0.0
 23
0.0
 14
1.0
 24
1.0
 15
1900.0
 25
1900.0
 16
0.0
 26
0.0
 36
1.0
 17
23187.54216236222
 27
34067.94128341666
 37
1200.0
 40
1951.61284188431
 41
1.500641848523748
 42
50.0
 43
0.0
 44
0.0
 50
0.0
 51
0.0
 71
     0
 72
 20000
 73
     1
 74
     0
 75
     0
 76
     0
 77
     0
 78
     1
281
     0
 65
     1
110
0.0
120
0.0
130
0.0
111
1.0
121
0.0
131
0.0
112
0.0
122
1.0
132
0.0
 79
     0
146
0.0
1001
ACAD_NAV_VCDISPLAY
1070
     3
  0
ENDTAB
  0
TABLE
  2
LTYPE
  5
556
330
0
100
AcDbSymbolTable
 70
     6
  0
LTYPE
  5
557
330
556
100
AcDbSymbolTableRecord
100
AcDbLinetypeTableRecord
  2
BYBLOCK
 70
     0
  3

 72
    65
 73
     0
 40
0.0
  0
LTYPE
  5
558
330
556
100
AcDbSymbolTableRecord
100
AcDbLinetypeTableRecord
  2
BYLAYER
 70
     0
  3

 72
    65
 73
     0
 40
0.0
  0
LTYPE
  5
5
330
556
100
AcDbSymbolTableRecord
100
AcDbLinetypeTableRecord
  2
CONTINUOUS
 70
     0
  3
Solid line
 72
    65
 73
     0
 40
0.0
  0
LTYPE
  5
7A08
330
556
100
AcDbSymbolTableRecord
100
AcDbLinetypeTableRecord
  2
DASHED
 70
     0
  3
__ __ __ __ __ __ __ __ __ __ __ __ __ __ __ __
 72
    65
 73
     2
 40
0.75
 49
0.5
 74
     0
 49
-0.25
 74
     0
  0
LTYPE
  5
880D
330
556
100
AcDbSymbolTableRecord
100
AcDbLinetypeTableRecord
  2
CENTER
 70
     0
  3
Center ____ _ ____ _ ____ _ ____ _ ____ _ ____
 72
    65
 73
     4
 40
2.0
 49
1.25
 74
     0
 49
-0.25
 74
     0
 49
0.25
 74
     0
 49
-0.25
 74
     0
  0
LTYPE
  5
907C
330
556
100
AcDbSymbolTableRecord
100
AcDbLinetypeTableRecord
  2
PHANTOM2
 70
     0
  3
Phantom (.5x) ___ _ _ ___ _ _ ___ _ _ ___ _ _
 72
    65
 73
     6
 40
1.25
 49
0.625
 74
     0
 49
-0.125
 74
     0
 49
0.125
 74
     0
 49
-0.125
 74
     0
 49
0.125
 74
     0
 49
-0.125
 74
     0
  0
ENDTAB
  0
TABLE
  2
LAYER
  5
553
102
{ACAD_XDICTIONARY
360
2C65
102
}
330
0
100
AcDbSymbolTable
 70
    19
  0
LAYER
  5
24
102
{ACAD_XDICTIONARY
360
2F90
102
}
330
553
100
AcDbSymbolTableRecord
100
AcDbLayerTableRecord
  2
0
 70
     0
 62
     7
  6
CONTINUOUS
370
    -3
390
58B
  0
LAYER
  5
2F
330
553
100
AcDbSymbolTableRecord
100
AcDbLayerTableRecord
  2
DEFPOINTS
 70
     0
 62
   210
  6
CONTINUOUS
290
     0
370
    -3
390
58B
  0
LAYER
  5
2FEE
330
553
100
AcDbSymbolTableRecord
100
AcDbLayerTableRecord
  2
Border
 70
     0
 62
     7
  6
CONTINUOUS
370
    -3
390
58B
1001
AcAecLayerStandard
1000

1000

  0
LAYER
  5
2FF6
102
{ACAD_XDICTIONARY
360
2FF7
102
}
330
553
100
AcDbSymbolTableRecord
100
AcDbLayerTableRecord
  2
3
 70
     0
 62
     2
  6
CONTINUOUS
370
    -3
390
58B
  0
LAYER
  5
2FF8
102
{ACAD_XDICTIONARY
360
2FF9
102
}
330
553
100
AcDbSymbolTableRecord
100
AcDbLayerTableRecord
  2
Title block
 70
     0
 62
     7
  6
CONTINUOUS
370
    50
390
58B
  0
LAYER
  5
30A7
330
553
100
AcDbSymbolTableRecord
100
AcDbLayerTableRecord
  2
Text
 70
     0
 62
     7
  6
CONTINUOUS
370
    -3
390
58B
1001
AcAecLayerStandard
1000

1000

  0
LAYER
  5
375E
330
553
100
AcDbSymbolTableRecord
100
AcDbLayerTableRecord
  2
Concrete
 70
     0
 62
     8
  6
CONTINUOUS
370
    -3
390
58B
1001
AcAecLayerStandard
1000

1000

  0
LAYER
  5
3767
330
553
100
AcDbSymbolTableRecord
100
AcDbLayerTableRecord
  2
Fixings & brackets
 70
     0
 62
     4
  6
CONTINUOUS
370
    -3
390
58B
1001
AcAecLayerStandard
1000

1000

  0
LAYER
  5
3774
330
553
100
AcDbSymbolTableRecord
100
AcDbLayerTableRecord
  2
Hatch
 70
     0
 62
     2
  6
CONTINUOUS
370
    -3
390
58B
1001
AcAecLayerStandard
1000

1000

  0
LAYER
  5
4668
330
553
100
AcDbSymbolTableRecord
100
AcDbLayerTableRecord
  2
Timber Elevation
 70
     0
 62
    31
  6
CONTINUOUS
370
    15
390
58B
1001
AcAecLayerStandard
1000

1000

  0
LAYER
  5
4671
330
553
100
AcDbSymbolTableRecord
100
AcDbLayerTableRecord
  2
Steel
 70
     0
 62
     3
  6
CONTINUOUS
370
    -3
390
58B
1001
AcAecLayerStandard
1000

1000

  0
ENDTAB
  0
TABLE
  2
STYLE
  5
554
330
0
100
AcDbSymbolTable
 70
    13
  0
STYLE
  5
555
330
554
100
AcDbSymbolTableRecord
100
AcDbTextStyleTableRecord
  2
STANDARD
 70
     0
 40
0.0
 41
1.0
 50
0.0
 71
     0
 42
150.0
  3
times.ttf
  4

1001
ACAD
1000
Times New Roman
1071
       18
  0
STYLE
  5
6
330
554
100
AcDbSymbolTableRecord
100
AcDbTextStyleTableRecord
  2
ROMANS
 70
     0
 40
0.0
 41
1.0
 50
0.0
 71
     0
 42
100.0
  3
romans.shx
  4

  0
STYLE
  5
2FFB
330
554
100
AcDbSymbolTableRecord
100
AcDbTextStyleTableRecord
  2
Title block
 70
     0
 40
2.5
 41
1.0
 50
0.0
 71
     0
 42
2.5
  3
times.ttf
  4

1001
ACAD
1000
Times New Roman
1071
       18
  0
STYLE
  5
30E8
330
554
100
AcDbSymbolTableRecord
100
AcDbTextStyleTableRecord
  2
1
 70
     0
 40
2.5
 41
1.0
 50
0.0
 71
     0
 42
2.5
  3
swiss.ttf
  4

1001
ACAD
1000
Swis721 BT
1071
       34
  0
STYLE
  5
7A0C
330
554
100
AcDbSymbolTableRecord
100
AcDbTextStyleTableRecord
  2
ATTR
 70
     0
 40
0.016387939192806
 41
0.8
 50
0.0
 71
     0
 42
0.016387939192806
  3
romans.shx
  4

  0
STYLE
  5
94BB
330
554
100
AcDbSymbolTableRecord
100
AcDbTextStyleTableRecord
  2
7
 70
     0
 40
17.5
 41
1.0
 50
0.0
 71
     0
 42
17.5
  3
swiss.ttf
  4

1001
ACAD
1000
Swis721 BT
1071
       34
  0
ENDTAB
  0
TABLE
  2
VIEW
  5
559
330
0
100
AcDbSymbolTable
 70
     5
  0
ENDTAB
  0
TABLE
  2
UCS
  5
55A
330
0
100
AcDbSymbolTable
 70
     0
  0
ENDTAB
  0
TABLE
  2
APPID
  5
55D
330
0
100
AcDbSymbolTable
 70
    32
  0
APPID
  5
62
330
55D
100
AcDbSymbolTableRecord
100
AcDbRegAppTableRecord
  2
ACAD
 70
     0
  0
APPID
  5
597
330
55D
100
AcDbSymbolTableRecord
100
AcDbRegAppTableRecord
  2
DCO15
 70
     0
  0
APPID
  5
F23
330
55D
100
AcDbSymbolTableRecord
100
AcDbRegAppTableRecord
  2
ACAD_DIMASSOC_CALC_DIMLFAC
 70
     0
  0
APPID
  5
F24
330
55D
100
AcDbSymbolTableRecord
100
AcDbRegAppTableRecord
  2
ACAD_DIMASSOC_DIMLFAC
 70
     0
  0
APPID
  5
F25
330
55D
100
AcDbSymbolTableRecord
100
AcDbRegAppTableRecord
  2
ACAD_DIMASSOC_OVERRIDDEN_DIMLFAC
 70
     0
  0
APPID
  5
2F87
330
55D
100
AcDbSymbolTableRecord
100
AcDbRegAppTableRecord
  2
ACAD_MLEADERVER
 70
     0
  0
APPID
  5
2FEF
330
55D
100
AcDbSymbolTableRecord
100
AcDbRegAppTableRecord
  2
AcAecLayerStandard
 70
     0
  0
APPID
  5
2FFD
330
55D
100
AcDbSymbolTableRecord
100
AcDbRegAppTableRecord
  2
AcadAnnoPO
 70
     0
  0
APPID
  5
2FFE
330
55D
100
AcDbSymbolTableRecord
100
AcDbRegAppTableRecord
  2
AcadAnnotative
 70
     0
  0
APPID
  5
2FFF
330
55D
100
AcDbSymbolTableRecord
100
AcDbRegAppTableRecord
  2
ACAD_DSTYLE_DIMJAG
 70
     0
  0
APPID
  5
3000
330
55D
100
AcDbSymbolTableRecord
100
AcDbRegAppTableRecord
  2
ACAD_DSTYLE_DIMTALN
 70
     0
  0
APPID
  5
3001
330
55D
100
AcDbSymbolTableRecord
100
AcDbRegAppTableRecord
  2
ACAD_PSEXT
 70
     0
  0
APPID
  5
3002
330
55D
100
AcDbSymbolTableRecord
100
AcDbRegAppTableRecord
  2
PROGE_PRINT_SETTINGS
 70
     0
  0
APPID
  5
3003
330
55D
100
AcDbSymbolTableRecord
100
AcDbRegAppTableRecord
  2
PCAD_LAYOUT
 70
     0
  0
APPID
  5
3004
330
55D
100
AcDbSymbolTableRecord
100
AcDbRegAppTableRecord
  2
RAK
 70
     0
  0
APPID
  5
3005
330
55D
100
AcDbSymbolTableRecord
100
AcDbRegAppTableRecord
  2
ACAD_DSTYLE_DIM_EXT1_LINETYPE
 70
     0
  0
APPID
  5
3006
330
55D
100
AcDbSymbolTableRecord
100
AcDbRegAppTableRecord
  2
ACAD_DSTYLE_DIM_EXT2_LINETYPE
 70
     0
  0
APPID
  5
3007
330
55D
100
AcDbSymbolTableRecord
100
AcDbRegAppTableRecord
  2
ACAD_DSTYLE_DIM_LINETYPE
 70
     0
  0
APPID
  5
3008
330
55D
100
AcDbSymbolTableRecord
100
AcDbRegAppTableRecord
  2
AcDbAttr
 70
     0
  0
APPID
  5
3009
330
55D
100
AcDbSymbolTableRecord
100
AcDbRegAppTableRecord
  2
ACAD_EXEMPT_FROM_CAD_STANDARDS
 70
     0
  0
APPID
  5
37C8
330
55D
100
AcDbSymbolTableRecord
100
AcDbRegAppTableRecord
  2
ACAD_DSTYLE_DIMJOGGED_JOGANGLE_SYMBOL
 70
     0
  0
APPID
  5
3981
330
55D
100
AcDbSymbolTableRecord
100
AcDbRegAppTableRecord
  2
ACAD_DSTYLE_DIMEXT_LENGTH
 70
     0
  0
APPID
  5
4337
330
55D
100
AcDbSymbolTableRecord
100
AcDbRegAppTableRecord
  2
ACAD_DSTYLE_DIMBREAK
 70
     0
  0
APPID
  5
527F
330
55D
100
AcDbSymbolTableRecord
100
AcDbRegAppTableRecord
  2
ACAD_DSTYLE_DIMTEXT_FILL
 70
     0
  0
APPID
  5
5280
330
55D
100
AcDbSymbolTableRecord
100
AcDbRegAppTableRecord
  2
ACAD_DSTYLE_DIMEXT_ENABLED
 70
     0
  0
APPID
  5
5281
330
55D
100
AcDbSymbolTableRecord
100
AcDbRegAppTableRecord
  2
ACAD_DSTYLE_DIMARC_LENGTH_SYMBOL
 70
     0
  0
APPID
  5
5282
330
55D
100
AcDbSymbolTableRecord
100
AcDbRegAppTableRecord
  2
AcDbDynamicBlockGUID
 70
     0
  0
APPID
  5
5283
330
55D
100
AcDbSymbolTableRecord
100
AcDbRegAppTableRecord
  2
AcDbBlockRepETag
 70
     0
  0
APPID
  5
5284
330
55D
100
AcDbSymbolTableRecord
100
AcDbRegAppTableRecord
  2
ACAUTHENVIRON
 70
     0
  0
APPID
  5
5285
330
55D
100
AcDbSymbolTableRecord
100
AcDbRegAppTableRecord
  2
AcDbDynamicBlockTrueName
 70
     0
  0
APPID
  5
908F
330
55D
100
AcDbSymbolTableRecord
100
AcDbRegAppTableRecord
  2
AcadAnnoMonitorAlertIconDisabled
 70
     0
  0
APPID
  5
90C9
330
55D
100
AcDbSymbolTableRecord
100
AcDbRegAppTableRecord
  2
ACAD_NAV_VCDISPLAY
 70
     0
  0
ENDTAB
  0
TABLE
  2
DIMSTYLE
  5
55E
330
0
100
AcDbSymbolTable
 70
     7
100
AcDbDimStyleTable
 71
     2
340
94BC
340
663
  0
DIMSTYLE
105
663
102
{ACAD_REACTORS
330
89E7
330
8A04
330
8835
102
}
330
55E
100
AcDbSymbolTableRecord
100
AcDbDimStyleTableRecord
  2
STANDARD
 70
     0
 41
3.0
 42
1.0
 43
1.0
 44
1.0
 73
     0
 74
     0
 77
     1
140
2.5
147
1.0
176
     7
177
     7
271
     0
272
     0
340
30E8
1001
ACAD_DSTYLE_DIMJAG
1070
   388
1040
1.5
1001
ACAD_DSTYLE_DIMTALN
1070
   392
1070
     0
  0
DIMSTYLE
105
94BC
102
{ACAD_REACTORS
330
9435
330
9436
330
9437
102
}
330
55E
100
AcDbSymbolTableRecord
100
AcDbDimStyleTableRecord
  2
Dim 7
 70
     0
 40
7.0
 41
3.0
 42
1.0
 43
1.0
 44
1.0
 73
     0
 74
     0
 77
     1
140
17.5
147
1.0
176
     7
177
     7
178
     7
271
     0
272
     0
340
94BB
1001
ACAD_DSTYLE_DIMBREAK
1070
   391
1040
0.125
1001
ACAD_DSTYLE_DIMJAG
1070
   388
1040
1.5
1001
ACAD_DSTYLE_DIMTALN
1070
   392
1070
     0
1001
ACAD_DSTYLE_DIMEXT_LENGTH
1070
   378
1040
10.0
1001
ACAD_DSTYLE_DIMJOGGED_JOGANGLE_SYMBOL
1070
   384
1040
1.570796326794896
  0
ENDTAB
  0
TABLE
  2
BLOCK_RECORD
  5
1
330
0
100
AcDbSymbolTable
 70
    49
  0
BLOCK_RECORD
  5
2
102
{ACAD_XDICTIONARY
360
30CC
102
}
330
1
100
AcDbSymbolTableRecord
100
AcDbBlockTableRecord
  2
*MODEL_SPACE
340
58E
  0
BLOCK_RECORD
  5
5E
330
1
100
AcDbSymbolTableRecord
100
AcDbBlockTableRecord
  2
*PAPER_SPACE
340
58F
  0
BLOCK_RECORD
  5
300A
102
{ACAD_XDICTIONARY
360
3021
102
}
330
1
100
AcDbSymbolTableRecord
100
AcDbBlockTableRecord
  2
A4 Title Block
340
0
102
{BLKREFS
331
3700
102
}
1001
ACAD
1000
DesignCenter Data
1002
{
1070
     1
1070
     4
1002
}
  0
BLOCK_RECORD
  5
5724
102
{ACAD_XDICTIONARY
360
5782
102
}
330
1
100
AcDbSymbolTableRecord
100
AcDbBlockTableRecord
  2
25 long screw
340
0
102
{BLKREFS
331
57A2
331
77C7
331
7BE0
331
7BE3
102
}
1001
ACAD
1000
DesignCenter Data
1002
{
1070
     1
1070
     4
1002
}
  0
BLOCK_RECORD
  5
77C9
330
1
100
AcDbSymbolTableRecord
100
AcDbBlockTableRecord
  2
M2 Hex Head Bolt Pv
340
0
310
2800000020000000200000000100080000000000000400000000000000000000000000000000000000000000000080000080000000808000800000008000800080800000C0C0C000C0DCC000F0CAA6000020400000206000002080000020A0000020C0000020E00000400000004020000040400000406000004080000040A0
310
000040C0000040E00000600000006020000060400000606000006080000060A0000060C0000060E00000800000008020000080400000806000008080000080A0000080C0000080E00000A0000000A0200000A0400000A0600000A0800000A0A00000A0C00000A0E00000C0000000C0200000C0400000C0600000C0800000C0
310
A00000C0C00000C0E00000E0000000E0200000E0400000E0600000E0800000E0A00000E0C00000E0E00040000000400020004000400040006000400080004000A0004000C0004000E00040200000402020004020400040206000402080004020A0004020C0004020E000404000004040200040404000404060004040800040
310
40A0004040C0004040E00040600000406020004060400040606000406080004060A0004060C0004060E00040800000408020004080400040806000408080004080A0004080C0004080E00040A0000040A0200040A0400040A0600040A0800040A0A00040A0C00040A0E00040C0000040C0200040C0400040C0600040C08000
310
40C0A00040C0C00040C0E00040E0000040E0200040E0400040E0600040E0800040E0A00040E0C00040E0E00080000000800020008000400080006000800080008000A0008000C0008000E00080200000802020008020400080206000802080008020A0008020C0008020E00080400000804020008040400080406000804080
310
008040A0008040C0008040E00080600000806020008060400080606000806080008060A0008060C0008060E00080800000808020008080400080806000808080008080A0008080C0008080E00080A0000080A0200080A0400080A0600080A0800080A0A00080A0C00080A0E00080C0000080C0200080C0400080C0600080C0
310
800080C0A00080C0C00080C0E00080E0000080E0200080E0400080E0600080E0800080E0A00080E0C00080E0E000C0000000C0002000C0004000C0006000C0008000C000A000C000C000C000E000C0200000C0202000C0204000C0206000C0208000C020A000C020C000C020E000C0400000C0402000C0404000C0406000C0
310
408000C040A000C040C000C040E000C0600000C0602000C0604000C0606000C0608000C060A000C060C000C060E000C0800000C0802000C0804000C0806000C0808000C080A000C080C000C080E000C0A00000C0A02000C0A04000C0A06000C0A08000C0A0A000C0A0C000C0A0E000C0C00000C0C02000C0C04000C0C06000
310
C0C08000C0C0A000F0FBFF00A4A0A000808080000000FF0000FF000000FFFF00FF000000FF00FF00FFFF0000FFFFFF00FFFFFFFFFFFFFFFFFFFFFFFFFFFFFFFFFFFFFFFFFFFFFFFFFFFFFFFFFFFFFFFFFFFFFFFFFFFFFFFFFFFFFFFFFFFFFFFF00FFFFFFFFFFFFFFFFFFFFFFFFFFFFFFFFFFFFFFFFFFFFFFFFFFFFFFFFFF00
310
00FF0000FFFFFFFFFFFFFFFFFFFFFFFFFFFFFFFFFFFFFFFFFFFFFFFFFF0000FFFFFFFFFF0000FFFFFFFFFFFFFFFFFFFFFFFFFFFFFFFFFFFFFFFFFF0000FF000000FFFFFFFFFF0000FFFFFFFFFFFFFFFFFFFFFFFFFFFFFFFFFF0000FF0000FFFFFF0000000000FFFF00FFFFFFFFFFFFFFFFFFFFFFFFFFFF0000FFFF00FFFFFF
310
FFFFFFFFFFFFFF0000000000FFFFFFFFFFFFFFFFFFFF0000FFFFFF00FFFFFFFFFFFFFFFFFFFFFFFFFFFF00FF0000FFFFFFFFFFFFFF00FFFFFF0000FFFFFFFFFFFFFFFFFFFFFFFFFFFFFF00FFFFFF00FFFFFFFFFFFF00FFFF00FFFFFFFFFFFFFFFFFFFFFFFFFFFFFFFFFFFF00FFFF00FFFFFFFFFFFF00FF00FFFFFFFFFFFFFF
310
FFFFFFFFFFFFFFFFFFFFFFFF00FFFF00FFFFFFFFFFFF00FF00FFFFFFFFFFFFFFFFFFFFFFFFFFFFFFFFFFFFFFFF00FF00FFFFFFFFFFFF00FF00FFFFFFFFFFFFFFFFFFFFFFFFFFFFFFFFFFFFFFFF00FF00FFFFFFFFFFFF00FF00FFFFFFFFFFFFFFFFFFFFFFFFFFFFFFFFFFFFFFFFFF0000FFFFFFFFFFFF00FF00FFFFFFFFFFFF
310
FFFFFFFFFFFFFFFFFFFFFFFFFFFFFF0000FFFFFFFFFFFF00FF00FFFFFFFFFFFFFFFFFFFFFFFFFFFFFFFFFFFFFFFFFFFF00FFFFFFFFFFFF00FF00FFFFFFFFFFFFFFFFFFFF00FFFFFFFFFFFFFFFFFFFFFF00FFFFFFFFFFFF00FF00FFFFFFFFFFFFFFFFFFFFFFFFFFFFFFFFFFFFFFFFFF0000FFFFFFFFFFFF00FF00FFFFFFFFFF
310
FFFFFFFFFFFFFFFFFFFFFFFFFFFFFFFF0000FFFFFFFFFFFF00FF00FFFFFFFFFFFFFFFFFFFFFFFFFFFFFFFFFFFFFFFF00FF00FFFFFFFFFFFF00FF00FFFFFFFFFFFFFFFFFFFFFFFFFFFFFFFFFFFFFFFF00FF00FFFFFFFFFFFF00FF00FFFFFFFFFFFFFFFFFFFFFFFFFFFFFFFFFFFFFF00FFFF00FFFFFFFFFFFF00FFFF0000FFFF
310
FFFFFFFFFFFFFFFFFFFFFFFFFFFFFF00FFFF00FFFFFFFFFFFF00FFFFFFFF00FFFFFFFFFFFFFFFFFFFFFFFFFFFFFF00FFFFFF00FFFFFFFFFFFFFF0000FFFFFF00FFFFFFFFFFFFFFFFFFFFFFFFFFFF00FF0000FFFFFFFFFFFFFFFFFFFF0000FFFF0000FFFFFFFFFFFFFFFFFF0000000000FFFFFFFFFFFFFFFFFFFFFFFFFFFF00
310
00FFFF00FFFFFF0000000000FFFF00FFFFFFFFFFFFFFFFFFFFFFFFFFFFFFFFFFFF0000FF000000FFFFFFFFFF0000FFFFFFFFFFFFFFFFFFFFFFFFFFFFFFFFFFFFFFFFFF0000FFFFFFFFFF0000FFFFFFFFFFFFFFFFFFFFFFFFFFFFFFFFFFFFFFFFFFFFFFFFFF0000FF0000FFFFFFFFFFFFFFFFFFFFFFFFFFFFFFFFFFFFFFFFFF
310
FFFFFFFFFFFFFFFF00FFFFFFFFFFFFFFFFFFFFFFFFFFFFFFFFFFFFFFFFFFFFFFFFFFFFFFFFFFFFFFFFFFFFFFFFFFFFFFFFFFFFFFFFFFFFFF
102
{BLKREFS
331
7BD3
331
7BD7
331
7BE4
331
7BE8
102
}
  0
BLOCK_RECORD
  5
8836
330
1
100
AcDbSymbolTableRecord
100
AcDbBlockTableRecord
  2
*D36
340
0
  0
BLOCK_RECORD
  5
89E8
330
1
100
AcDbSymbolTableRecord
100
AcDbBlockTableRecord
  2
*D37
340
0
  0
BLOCK_RECORD
  5
8A05
330
1
100
AcDbSymbolTableRecord
100
AcDbBlockTableRecord
  2
*D38
340
0
  0
BLOCK_RECORD
  5
8A21
330
1
100
AcDbSymbolTableRecord
100
AcDbBlockTableRecord
  2
_ArchTick
340
0
102
{BLKREFS
331
8ED4
331
8ED5
331
8EE0
331
8EE1
331
90C0
331
90C1
102
}
  0
BLOCK_RECORD
  5
9438
330
1
100
AcDbSymbolTableRecord
100
AcDbBlockTableRecord
  2
*D45
340
0
  0
BLOCK_RECORD
  5
9444
330
1
100
AcDbSymbolTableRecord
100
AcDbBlockTableRecord
  2
*D46
340
0
  0
BLOCK_RECORD
  5
9450
330
1
100
AcDbSymbolTableRecord
100
AcDbBlockTableRecord
  2
*D47
340
0
  0
ENDTAB
  0
ENDSEC
  0
SECTION
  2
BLOCKS
  0
BLOCK
  5
5C
330
2
100
AcDbEntity
  8
0
100
AcDbBlockBegin
  2
*MODEL_SPACE
 70
     0
 10
0.0
 20
0.0
 30
0.0
  3
*MODEL_SPACE
  1

  0
ENDBLK
  5
5D
330
2
100
AcDbEntity
  8
0
100
AcDbBlockEnd
  0
BLOCK
  5
551
330
5E
100
AcDbEntity
 67
     1
  8
0
100
AcDbBlockBegin
  2
*PAPER_SPACE
 70
     0
 10
0.0
 20
0.0
 30
0.0
  3
*PAPER_SPACE
  1

  0
ENDBLK
  5
552
330
5E
100
AcDbEntity
 67
     1
  8
0
100
AcDbBlockEnd
  0
BLOCK
  5
3023
330
300A
100
AcDbEntity
  8
0
100
AcDbBlockBegin
  2
A4 Title Block
 70
     2
 10
0.0
 20
0.0
 30
0.0
  3
A4 Title Block
  1

  0
TEXT
  5
93CF
330
300A
100
AcDbEntity
  8
3
 62
     7
100
AcDbText
 10
-853.4347976406543
 20
37.0581002795501
 30
0.0
 40
8.0
  1

 41
0.85
  7
ROMANS
100
AcDbText
  0
LINE
  5
93D0
330
300A
100
AcDbEntity
  8
Title block
100
AcDbLine
 10
-53.39424020223919
 20
255.4041454248354
 30
0.0
 11
-53.39424020223919
 21
-21.19891004925512
 31
0.0
  0
LINE
  5
93D1
330
300A
100
AcDbEntity
  8
Title block
100
AcDbLine
 10
-53.39424020223919
 20
-21.19891004925512
 30
0.0
 11
136.6057597977608
 21
-21.19891004925512
 31
0.0
  0
LINE
  5
93D2
330
300A
100
AcDbEntity
  8
Title block
100
AcDbLine
 10
136.6057597977608
 20
-21.19891004925512
 30
0.0
 11
136.6057597977608
 21
255.4041454248354
 31
0.0
  0
LINE
  5
93D3
330
300A
100
AcDbEntity
  8
Title block
100
AcDbLine
 10
136.6057597977608
 20
255.4041454248354
 30
0.0
 11
-53.39424020223919
 21
255.4041454248354
 31
0.0
  0
LINE
  5
93D4
330
300A
100
AcDbEntity
  8
Title block
100
AcDbLine
 10
5.322295774367375
 20
-1.849809968847825
 30
0.0
 11
136.7843384162145
 21
-1.849809968847711
 31
0.0
  0
LINE
  5
93D5
330
300A
100
AcDbEntity
  8
Title block
100
AcDbLine
 10
5.322295774367375
 20
-10.88464955839267
 30
0.0
 11
136.7843384162147
 21
-10.88464955839255
 31
0.0
  0
TEXT
  5
93D6
330
300A
100
AcDbEntity
  8
0
100
AcDbText
 10
9.675893772968493
 20
-7.472611373172771
 30
0.0
 40
2.5
  1
Date:
  7
Title block
100
AcDbText
  0
TEXT
  5
93D7
330
300A
100
AcDbEntity
  8
0
100
AcDbText
 10
91.38994071143883
 20
-7.411777803461195
 30
0.0
 40
2.5
  1
Detail No.
  7
Title block
100
AcDbText
  0
TEXT
  5
93D8
330
300A
100
AcDbEntity
  8
0
100
AcDbText
 10
9.502250865730047
 20
7.648243604712661
 30
0.0
 40
2.5
  1
Title:
  7
Title block
100
AcDbText
  0
LWPOLYLINE
  5
93D9
330
300A
100
AcDbEntity
  8
Title block
100
AcDbPolyline
 90
        2
 70
     0
 43
0.0
 10
-53.39424020223919
 20
12.10448104516263
 10
136.6057597977608
 20
12.10448104516263
  0
MTEXT
  5
93DA
330
300A
100
AcDbEntity
  8
Title block
100
AcDbMText
 10
6.609142078680179
 20
-12.95411800504515
 30
0.0
 40
2.5
 41
129.8458211596216
 71
     1
 72
     1
  1
This drawing is to be read in conjunction with all the current, relevant Supercrete \PTechnical Literature, Project Specific Design Documentation and Specifications
  7
Title block
 73
     1
 44
1.0
  0
LWPOLYLINE
  5
93DB
330
300A
100
AcDbEntity
  8
Title block
100
AcDbPolyline
 90
        2
 70
     0
 43
0.0
 10
46.71209860759859
 20
-1.849809968847822
 10
46.71209860759859
 20
-10.88464955839267
  0
LWPOLYLINE
  5
93DC
330
300A
100
AcDbEntity
  8
Title block
100
AcDbPolyline
 90
        2
 70
     0
 43
0.0
 10
89.74925677747592
 20
-1.849809968847832
 10
89.74925677747592
 20
-10.88464955839268
  0
TEXT
  5
93DD
330
300A
100
AcDbEntity
  8
0
100
AcDbText
 10
51.06569660619993
 20
-7.472611373172771
 30
0.0
 40
2.5
  1
Scale:
  7
Title block
100
AcDbText
  0
ATTDEF
  5
93DE
330
300A
100
AcDbEntity
  8
Title block
100
AcDbText
 10
20.96937096573947
 20
-7.642940466626214
 30
0.0
 40
2.5
  1

100
AcDbAttributeDefinition
  3
Date
  2
DATE
 70
     0
1001
AcDbAttr
1070
     0
1070
     1
  0
ATTDEF
  5
93DF
330
300A
100
AcDbEntity
  8
Title block
100
AcDbText
 10
63.23629700150786
 20
-7.642940466626214
 30
0.0
 40
2.5
  1

100
AcDbAttributeDefinition
  3
Scale
  2
SCALE
 70
     0
1001
AcDbAttr
1070
     0
1070
     1
  0
ATTDEF
  5
93E0
330
300A
100
AcDbEntity
  8
Title block
100
AcDbText
 10
111.1388136280311
 20
-7.311601095675996
 30
0.0
 40
2.5
  1

100
AcDbAttributeDefinition
  3
Drg No
  2
DRGNO
 70
     0
1001
AcDbAttr
1070
     0
1070
     1
  0
ATTDEF
  5
93E1
330
300A
100
AcDbEntity
  8
Title block
100
AcDbText
 10
8.067229221254478
 20
-0.0001543750333894
 30
0.0
 40
3.5
  1

  7
1
100
AcDbAttributeDefinition
  3
Title
  2
TITLE
 70
     0
  0
ATTDEF
  5
93E2
330
300A
100
AcDbEntity
  8
Title block
100
AcDbText
 10
19.80232515842442
 20
6.748439479395983
 30
0.0
 40
3.5
  1

  7
1
100
AcDbAttributeDefinition
  3
Title2
  2
TITLE2
 70
     0
  0
LINE
  5
93E3
330
300A
100
AcDbEntity
  8
Title block
100
AcDbLine
 10
5.160599931094154
 20
12.11369795074488
 30
0.0
 11
5.160599931094154
 21
-21.18969314367286
 31
0.0
  0
IMAGE
  5
93E4
330
300A
100
AcDbEntity
  8
Title block
 92
      140
310
8C0000000100000084000000060000000500000060B1837676B24AC0CC5E2FB1C06AF1BF000000000000000060B1837676B24AC0FE0C208A7E35284000000000000000003028EF4E74A41440FE0C208A7E35284000000000000000003028EF4E74A41440CC5E2FB1C06AF1BF000000000000000060B1837676B24AC0CC5E2F
310
B1C06AF1BF0000000000000000
100
AcDbRasterImage
 90
        0
 10
-53.39424020223919
 20
-1.088562671784461
 30
0.0
 11
0.0428345575225555
 21
0.0
 31
0.0
 12
0.0
 22
0.0428345575225555
 32
0.0
 13
1367.0
 23
308.0
340
93E7
 70
     7
280
     0
281
    50
282
    50
283
     0
360
93E5
 71
     1
 91
        2
 14
-0.5
 24
-0.5
 14
1366.5
 24
307.5
  0
ENDBLK
  5
3024
330
300A
100
AcDbEntity
  8
0
100
AcDbBlockEnd
  0
BLOCK
  5
5784
330
5724
100
AcDbEntity
  8
0
100
AcDbBlockBegin
  2
25 long screw
 70
     0
 10
0.0
 20
0.0
 30
0.0
  3
25 long screw
  1

  0
LINE
  5
5725
330
5724
100
AcDbEntity
  8
0
100
AcDbLine
 10
20695.58337530871
 20
-854.338678296002
 30
0.0
 11
20696.02963664271
 21
-852.623569805322
 31
0.0
  0
LINE
  5
5726
330
5724
100
AcDbEntity
  8
0
100
AcDbLine
 10
20696.13262002748
 20
-854.338678296002
 30
0.0
 11
20695.75501428333
 21
-854.7846061515498
 31
0.0
  0
LINE
  5
5727
330
5724
100
AcDbEntity
  8
0
100
AcDbLine
 10
20696.02459951997
 20
-852.6429288922885
 30
0.0
 11
20695.06845838487
 21
-852.6429288922885
 31
0.0
  0
LINE
  5
5728
330
5724
100
AcDbEntity
  8
0
100
AcDbLine
 10
20684.73490985685
 20
-853.4985972673561
 30
0.0
 11
20687.94591129925
 21
-852.6429288922885
 31
0.0
  0
LINE
  5
5729
330
5724
100
AcDbEntity
  8
0
100
AcDbLine
 10
20684.73490985685
 20
-853.4985972673561
 30
0.0
 11
20687.94591129925
 21
-854.3542656424238
 31
0.0
  0
LINE
  5
572A
330
5724
100
AcDbEntity
  8
0
100
AcDbLine
 10
20691.49836771287
 20
-852.623569805322
 30
0.0
 11
20692.01328463672
 21
-852.1457899600923
 31
0.0
  0
LINE
  5
572B
330
5724
100
AcDbEntity
  8
0
100
AcDbLine
 10
20692.01328463672
 20
-852.6429288922885
 30
0.0
 11
20691.60135109764
 21
-854.338678296002
 31
0.0
  0
LINE
  5
572C
330
5724
100
AcDbEntity
  8
0
100
AcDbLine
 10
20692.60285676699
 20
-854.3542656424238
 30
0.0
 11
20691.58815194116
 21
-854.3542656424238
 31
0.0
  0
LINE
  5
572D
330
5724
100
AcDbEntity
  8
0
100
AcDbLine
 10
20690.05156320337
 20
-852.6429288922885
 30
0.0
 11
20689.09542206826
 21
-852.6429288922885
 31
0.0
  0
LINE
  5
572E
330
5724
100
AcDbEntity
  8
0
100
AcDbLine
 10
20689.61633860869
 20
-854.3542656424238
 30
0.0
 11
20688.6702893727
 21
-854.3542656424238
 31
0.0
  0
LINE
  5
572F
330
5724
100
AcDbEntity
  8
0
100
AcDbLine
 10
20690.57151724995
 20
-852.6429288922885
 30
0.0
 11
20690.15958371087
 21
-854.338678296002
 31
0.0
  0
LINE
  5
5730
330
5724
100
AcDbEntity
  8
0
100
AcDbLine
 10
20689.6103389921
 20
-854.338678296002
 30
0.0
 11
20690.0566003261
 21
-852.623569805322
 31
0.0
  0
LINE
  5
5731
330
5724
100
AcDbEntity
  8
0
100
AcDbLine
 10
20691.05210637887
 20
-854.338678296002
 30
0.0
 11
20691.49836771287
 21
-852.623569805322
 31
0.0
  0
LINE
  5
5732
330
5724
100
AcDbEntity
  8
0
100
AcDbLine
 10
20691.05810599546
 20
-854.3542656424238
 30
0.0
 11
20690.14638455439
 21
-854.3542656424238
 31
0.0
  0
LINE
  5
5733
330
5724
100
AcDbEntity
  8
0
100
AcDbLine
 10
20691.60135109764
 20
-854.338678296002
 30
0.0
 11
20691.22374535349
 21
-854.7846061515498
 31
0.0
  0
LINE
  5
5734
330
5724
100
AcDbEntity
  8
0
100
AcDbLine
 10
20691.22374535349
 20
-854.7846061515498
 30
0.0
 11
20691.05210637887
 21
-854.338678296002
 31
0.0
  0
LINE
  5
5735
330
5724
100
AcDbEntity
  8
0
100
AcDbLine
 10
20690.15958371087
 20
-854.338678296002
 30
0.0
 11
20689.78197796672
 21
-854.7846061515498
 31
0.0
  0
LINE
  5
5736
330
5724
100
AcDbEntity
  8
0
100
AcDbLine
 10
20689.78197796672
 20
-854.7846061515498
 30
0.0
 11
20689.6103389921
 21
-854.338678296002
 31
0.0
  0
LINE
  5
5737
330
5724
100
AcDbEntity
  8
0
100
AcDbLine
 10
20691.49333059014
 20
-852.6429288922885
 30
0.0
 11
20690.57151724995
 21
-852.6429288922885
 31
0.0
  0
LINE
  5
5738
330
5724
100
AcDbEntity
  8
0
100
AcDbLine
 10
20690.0566003261
 20
-852.623569805322
 30
0.0
 11
20690.57151724995
 21
-852.1457899600923
 31
0.0
  0
LINE
  5
5739
330
5724
100
AcDbEntity
  8
0
100
AcDbLine
 10
20690.57151724995
 20
-852.1457899600923
 30
0.0
 11
20690.57151724995
 21
-852.6429288922885
 31
0.0
  0
LINE
  5
573A
330
5724
100
AcDbEntity
  8
0
100
AcDbLine
 10
20689.09542206826
 20
-852.6429288922885
 30
0.0
 11
20688.68348852918
 21
-854.338678296002
 31
0.0
  0
LINE
  5
573B
330
5724
100
AcDbEntity
  8
0
100
AcDbLine
 10
20688.68348852918
 20
-854.338678296002
 30
0.0
 11
20688.30588278503
 21
-854.7846061515498
 31
0.0
  0
LINE
  5
573C
330
5724
100
AcDbEntity
  8
0
100
AcDbLine
 10
20688.58050514442
 20
-852.623569805322
 30
0.0
 11
20689.09542206826
 21
-852.1457899600923
 31
0.0
  0
LINE
  5
573D
330
5724
100
AcDbEntity
  8
0
100
AcDbLine
 10
20689.09542206826
 20
-852.1457899600923
 30
0.0
 11
20689.09542206826
 21
-852.6429288922885
 31
0.0
  0
LINE
  5
573E
330
5724
100
AcDbEntity
  8
0
100
AcDbLine
 10
20688.13424381041
 20
-854.338678296002
 30
0.0
 11
20688.58050514442
 21
-852.623569805322
 31
0.0
  0
LINE
  5
573F
330
5724
100
AcDbEntity
  8
0
100
AcDbLine
 10
20688.30588278503
 20
-854.7846061515498
 30
0.0
 11
20688.13424381041
 21
-854.338678296002
 31
0.0
  0
LINE
  5
5740
330
5724
100
AcDbEntity
  8
0
100
AcDbLine
 10
20688.140243427
 20
-854.3542656424238
 30
0.0
 11
20687.94591129925
 21
-854.3542656424238
 31
0.0
  0
LINE
  5
5741
330
5724
100
AcDbEntity
  8
0
100
AcDbLine
 10
20688.57546802168
 20
-852.6429288922885
 30
0.0
 11
20687.94591129925
 21
-852.6429288922885
 31
0.0
  0
LINE
  5
5742
330
5724
100
AcDbEntity
  8
0
100
AcDbLine
 10
20694.54850433829
 20
-852.6429288922885
 30
0.0
 11
20693.55803540826
 21
-852.6429288922885
 31
0.0
  0
LINE
  5
5743
330
5724
100
AcDbEntity
  8
0
100
AcDbLine
 10
20694.11327974361
 20
-854.3542656424238
 30
0.0
 11
20693.1329027127
 21
-854.3542656424238
 31
0.0
  0
LINE
  5
5744
330
5724
100
AcDbEntity
  8
0
100
AcDbLine
 10
20693.55803540825
 20
-852.6429288922885
 30
0.0
 11
20693.14610186918
 21
-854.338678296002
 31
0.0
  0
LINE
  5
5745
330
5724
100
AcDbEntity
  8
0
100
AcDbLine
 10
20692.59685715041
 20
-854.338678296002
 30
0.0
 11
20693.04311848441
 21
-852.623569805322
 31
0.0
  0
LINE
  5
5746
330
5724
100
AcDbEntity
  8
0
100
AcDbLine
 10
20693.14610186918
 20
-854.338678296002
 30
0.0
 11
20692.76849612502
 21
-854.7846061515498
 31
0.0
  0
LINE
  5
5747
330
5724
100
AcDbEntity
  8
0
100
AcDbLine
 10
20692.76849612502
 20
-854.7846061515498
 30
0.0
 11
20692.59685715041
 21
-854.338678296002
 31
0.0
  0
LINE
  5
5748
330
5724
100
AcDbEntity
  8
0
100
AcDbLine
 10
20693.04311848441
 20
-852.623569805322
 30
0.0
 11
20693.55803540825
 21
-852.1457899600923
 31
0.0
  0
LINE
  5
5749
330
5724
100
AcDbEntity
  8
0
100
AcDbLine
 10
20693.55803540825
 20
-852.1457899600923
 30
0.0
 11
20693.55803540825
 21
-852.6429288922885
 31
0.0
  0
LINE
  5
574A
330
5724
100
AcDbEntity
  8
0
100
AcDbLine
 10
20694.65652484579
 20
-854.338678296002
 30
0.0
 11
20694.27891910164
 21
-854.7846061515498
 31
0.0
  0
LINE
  5
574B
330
5724
100
AcDbEntity
  8
0
100
AcDbLine
 10
20694.10728012702
 20
-854.338678296002
 30
0.0
 11
20694.55354146102
 21
-852.623569805322
 31
0.0
  0
LINE
  5
574C
330
5724
100
AcDbEntity
  8
0
100
AcDbLine
 10
20695.06845838487
 20
-852.6429288922885
 30
0.0
 11
20694.65652484579
 21
-854.338678296002
 31
0.0
  0
LINE
  5
574D
330
5724
100
AcDbEntity
  8
0
100
AcDbLine
 10
20695.75501428333
 20
-854.7846061515498
 30
0.0
 11
20695.58337530871
 21
-854.338678296002
 31
0.0
  0
LINE
  5
574E
330
5724
100
AcDbEntity
  8
0
100
AcDbLine
 10
20695.5893749253
 20
-854.3542656424238
 30
0.0
 11
20694.64332568931
 21
-854.3542656424238
 31
0.0
  0
LINE
  5
574F
330
5724
100
AcDbEntity
  8
0
100
AcDbLine
 10
20694.55354146102
 20
-852.623569805322
 30
0.0
 11
20695.06845838487
 21
-852.1457899600923
 31
0.0
  0
LINE
  5
5750
330
5724
100
AcDbEntity
  8
0
100
AcDbLine
 10
20695.06845838487
 20
-852.1457899600923
 30
0.0
 11
20695.06845838487
 21
-852.6429288922885
 31
0.0
  0
LINE
  5
5751
330
5724
100
AcDbEntity
  8
0
100
AcDbLine
 10
20694.27891910164
 20
-854.7846061515498
 30
0.0
 11
20694.10728012702
 21
-854.338678296002
 31
0.0
  0
LINE
  5
5752
330
5724
100
AcDbEntity
  8
0
100
AcDbLine
 10
20692.01328463672
 20
-852.1457899600923
 30
0.0
 11
20692.01328463672
 21
-852.6429288922885
 31
0.0
  0
LINE
  5
5753
330
5724
100
AcDbEntity
  8
0
100
AcDbLine
 10
20693.03808136167
 20
-852.6429288922885
 30
0.0
 11
20692.01328463672
 21
-852.6429288922885
 31
0.0
  0
LINE
  5
5754
330
5724
100
AcDbEntity
  8
0
100
AcDbLine
 10
20710.62722456204
 20
-851.5953204126684
 30
0.0
 11
20710.62722456204
 21
-855.401874122043
 31
0.0
  0
LINE
  5
5755
330
5724
100
AcDbEntity
  8
0
100
AcDbLine
 10
20713.16682288106
 20
-851.5953204126684
 30
0.0
 11
20713.16682288106
 21
-855.401874122043
 31
0.0
  0
LINE
  5
5756
330
5724
100
AcDbEntity
  8
0
100
AcDbLine
 10
20710.05182293959
 20
-856.5649858695929
 30
0.0
 11
20710.05182293959
 21
-850.4322086651185
 31
0.0
  0
LINE
  5
5757
330
5724
100
AcDbEntity
  8
0
100
AcDbLine
 10
20710.05182293959
 20
-852.6429288922885
 30
0.0
 11
20702.10566062009
 21
-852.6429288922885
 31
0.0
  0
LINE
  5
5758
330
5724
100
AcDbEntity
  8
0
100
AcDbLine
 10
20710.05182293959
 20
-854.3542656424238
 30
0.0
 11
20701.68052792454
 21
-854.3542656424239
 31
0.0
  0
LINE
  5
5759
330
5724
100
AcDbEntity
  8
0
100
AcDbLine
 10
20700.26339962521
 20
-852.6429288922885
 30
0.0
 11
20699.39376482118
 21
-852.6429288922885
 31
0.0
  0
LINE
  5
575A
330
5724
100
AcDbEntity
  8
0
100
AcDbLine
 10
20699.84002615518
 20
-854.270072849998
 30
0.0
 11
20700.28628748917
 21
-852.554964359318
 31
0.0
  0
LINE
  5
575B
330
5724
100
AcDbEntity
  8
0
100
AcDbLine
 10
20700.01166512979
 20
-854.7160007055458
 30
0.0
 11
20699.84002615518
 21
-854.270072849998
 31
0.0
  0
LINE
  5
575C
330
5724
100
AcDbEntity
  8
0
100
AcDbLine
 10
20697.46636690674
 20
-852.6429288922885
 30
0.0
 11
20696.54455356656
 21
-852.6429288922885
 31
0.0
  0
LINE
  5
575D
330
5724
100
AcDbEntity
  8
0
100
AcDbLine
 10
20699.87243221455
 20
-854.3542656424238
 30
0.0
 11
20698.96863212562
 21
-854.3542656424238
 31
0.0
  0
LINE
  5
575E
330
5724
100
AcDbEntity
  8
0
100
AcDbLine
 10
20697.98632095332
 20
-852.6429288922885
 30
0.0
 11
20697.57438741425
 21
-854.338678296002
 31
0.0
  0
LINE
  5
575F
330
5724
100
AcDbEntity
  8
0
100
AcDbLine
 10
20698.43258656333
 20
-854.338678296002
 30
0.0
 11
20698.87884789733
 21
-852.623569805322
 31
0.0
  0
LINE
  5
5760
330
5724
100
AcDbEntity
  8
0
100
AcDbLine
 10
20697.02514269548
 20
-854.338678296002
 30
0.0
 11
20697.47140402948
 21
-852.623569805322
 31
0.0
  0
LINE
  5
5761
330
5724
100
AcDbEntity
  8
0
100
AcDbLine
 10
20699.39376482118
 20
-852.6429288922885
 30
0.0
 11
20698.9818312821
 21
-854.338678296002
 31
0.0
  0
LINE
  5
5762
330
5724
100
AcDbEntity
  8
0
100
AcDbLine
 10
20698.43858617991
 20
-854.3542656424238
 30
0.0
 11
20697.56118825777
 21
-854.3542656424238
 31
0.0
  0
LINE
  5
5763
330
5724
100
AcDbEntity
  8
0
100
AcDbLine
 10
20698.9818312821
 20
-854.338678296002
 30
0.0
 11
20698.60422553795
 21
-854.7846061515498
 31
0.0
  0
LINE
  5
5764
330
5724
100
AcDbEntity
  8
0
100
AcDbLine
 10
20698.60422553795
 20
-854.7846061515498
 30
0.0
 11
20698.43258656333
 21
-854.338678296002
 31
0.0
  0
LINE
  5
5765
330
5724
100
AcDbEntity
  8
0
100
AcDbLine
 10
20697.57438741425
 20
-854.338678296002
 30
0.0
 11
20697.19678167009
 21
-854.7846061515498
 31
0.0
  0
LINE
  5
5766
330
5724
100
AcDbEntity
  8
0
100
AcDbLine
 10
20697.19678167009
 20
-854.7846061515498
 30
0.0
 11
20697.02514269548
 21
-854.338678296002
 31
0.0
  0
LINE
  5
5767
330
5724
100
AcDbEntity
  8
0
100
AcDbLine
 10
20698.8738107746
 20
-852.6429288922885
 30
0.0
 11
20697.98632095332
 21
-852.6429288922885
 31
0.0
  0
LINE
  5
5768
330
5724
100
AcDbEntity
  8
0
100
AcDbLine
 10
20698.87884789733
 20
-852.623569805322
 30
0.0
 11
20699.39376482118
 21
-852.1457899600923
 31
0.0
  0
LINE
  5
5769
330
5724
100
AcDbEntity
  8
0
100
AcDbLine
 10
20699.39376482118
 20
-852.1457899600923
 30
0.0
 11
20699.39376482118
 21
-852.6429288922885
 31
0.0
  0
LINE
  5
576A
330
5724
100
AcDbEntity
  8
0
100
AcDbLine
 10
20697.47140402948
 20
-852.623569805322
 30
0.0
 11
20697.98632095332
 21
-852.1457899600923
 31
0.0
  0
LINE
  5
576B
330
5724
100
AcDbEntity
  8
0
100
AcDbLine
 10
20697.98632095332
 20
-852.1457899600923
 30
0.0
 11
20697.98632095332
 21
-852.6429288922885
 31
0.0
  0
LINE
  5
576C
330
5724
100
AcDbEntity
  8
0
100
AcDbLine
 10
20696.54455356656
 20
-852.1457899600923
 30
0.0
 11
20696.54455356656
 21
-852.6429288922885
 31
0.0
  0
LINE
  5
576D
330
5724
100
AcDbEntity
  8
0
100
AcDbLine
 10
20697.03114231206
 20
-854.3542656424238
 30
0.0
 11
20696.119420871
 21
-854.3542656424238
 31
0.0
  0
LINE
  5
576E
330
5724
100
AcDbEntity
  8
0
100
AcDbLine
 10
20696.54455356656
 20
-852.6429288922885
 30
0.0
 11
20696.13262002748
 21
-854.338678296002
 31
0.0
  0
LINE
  5
576F
330
5724
100
AcDbEntity
  8
0
100
AcDbLine
 10
20696.02963664271
 20
-852.623569805322
 30
0.0
 11
20696.54455356656
 21
-852.1457899600923
 31
0.0
  0
LINE
  5
5770
330
5724
100
AcDbEntity
  8
0
100
AcDbLine
 10
20701.14448236225
 20
-854.338678296002
 30
0.0
 11
20701.59074369625
 21
-852.623569805322
 31
0.0
  0
LINE
  5
5771
330
5724
100
AcDbEntity
  8
0
100
AcDbLine
 10
20702.1056606201
 20
-852.6429288922885
 30
0.0
 11
20701.69372708102
 21
-854.338678296002
 31
0.0
  0
LINE
  5
5772
330
5724
100
AcDbEntity
  8
0
100
AcDbLine
 10
20701.69372708102
 20
-854.338678296002
 30
0.0
 11
20701.31612133687
 21
-854.7846061515498
 31
0.0
  0
LINE
  5
5773
330
5724
100
AcDbEntity
  8
0
100
AcDbLine
 10
20701.31612133687
 20
-854.7846061515498
 30
0.0
 11
20701.14448236225
 21
-854.338678296002
 31
0.0
  0
LINE
  5
5774
330
5724
100
AcDbEntity
  8
0
100
AcDbLine
 10
20701.58570657352
 20
-852.6429288922885
 30
0.0
 11
20700.78453869336
 21
-852.6429288922885
 31
0.0
  0
LINE
  5
5775
330
5724
100
AcDbEntity
  8
0
100
AcDbLine
 10
20702.1056606201
 20
-852.1457899600923
 30
0.0
 11
20702.1056606201
 21
-852.6429288922885
 31
0.0
  0
LINE
  5
5776
330
5724
100
AcDbEntity
  8
0
100
AcDbLine
 10
20701.59074369625
 20
-852.623569805322
 30
0.0
 11
20702.1056606201
 21
-852.1457899600923
 31
0.0
  0
LINE
  5
5777
330
5724
100
AcDbEntity
  8
0
100
AcDbLine
 10
20700.80120441302
 20
-852.0771845140879
 30
0.0
 11
20700.80120441302
 21
-852.5743234462838
 31
0.0
  0
LINE
  5
5778
330
5724
100
AcDbEntity
  8
0
100
AcDbLine
 10
20700.38927087395
 20
-854.270072849998
 30
0.0
 11
20700.01166512979
 21
-854.7160007055458
 31
0.0
  0
LINE
  5
5779
330
5724
100
AcDbEntity
  8
0
100
AcDbLine
 10
20700.80120441302
 20
-852.5743234462838
 30
0.0
 11
20700.38927087395
 21
-854.270072849998
 31
0.0
  0
LINE
  5
577A
330
5724
100
AcDbEntity
  8
0
100
AcDbLine
 10
20701.15048197883
 20
-854.3542656424238
 30
0.0
 11
20700.31797754333
 21
-854.3542656424238
 31
0.0
  0
LINE
  5
577B
330
5724
100
AcDbEntity
  8
0
100
AcDbLine
 10
20700.28628748917
 20
-852.554964359318
 30
0.0
 11
20700.80120441302
 21
-852.0771845140879
 31
0.0
  0
LINE
  5
577C
330
5724
100
AcDbEntity
  8
0
100
AcDbLine
 10
20710.05182293959
 20
-850.4322086651185
 30
0.0
 11
20710.62722456204
 21
-851.5953204126684
 31
0.0
  0
LINE
  5
577D
330
5724
100
AcDbEntity
  8
0
100
AcDbLine
 10
20710.62722456204
 20
-852.4015701858802
 30
0.0
 11
20713.16682288106
 21
-852.4015701858802
 31
0.0
  0
LINE
  5
577E
330
5724
100
AcDbEntity
  8
0
100
AcDbLine
 10
20710.62722456204
 20
-854.5956243488312
 30
0.0
 11
20713.16682288106
 21
-854.5956243488312
 31
0.0
  0
LINE
  5
577F
330
5724
100
AcDbEntity
  8
0
100
AcDbLine
 10
20710.62722456204
 20
-851.5953204126684
 30
0.0
 11
20713.16682288106
 21
-851.5953204126684
 31
0.0
  0
LINE
  5
5780
330
5724
100
AcDbEntity
  8
0
100
AcDbLine
 10
20710.05182293959
 20
-856.5649858695929
 30
0.0
 11
20710.62722456204
 21
-855.401874122043
 31
0.0
  0
LINE
  5
5781
330
5724
100
AcDbEntity
  8
0
100
AcDbLine
 10
20713.16682288106
 20
-855.401874122043
 30
0.0
 11
20710.62722456204
 21
-855.401874122043
 31
0.0
  0
ENDBLK
  5
5785
330
5724
100
AcDbEntity
  8
0
100
AcDbBlockEnd
  0
BLOCK
  5
77CA
330
77C9
100
AcDbEntity
  8
0
100
AcDbBlockBegin
  2
M2 Hex Head Bolt Pv
 70
     2
 10
0.0
 20
0.0
 30
0.0
  3
M2 Hex Head Bolt Pv
  1

  0
ATTDEF
  5
77CB
330
77C9
100
AcDbEntity
  8
0
100
AcDbText
 10
0.0
 20
0.0
 30
0.0
 40
0.0000853271457429
  1

 41
0.8
  7
ATTR
100
AcDbAttributeDefinition
  3

  2
ESTCODE
 70
     9
  0
LINE
  5
77CC
330
77C9
100
AcDbEntity
  8
0
  6
Continuous
100
AcDbLine
 10
0.0629919999999998
 20
-0.0363684437984
 30
0.0
 11
0.0
 21
-0.0727368938959999
 31
0.0
  0
LINE
  5
77CD
330
77C9
100
AcDbEntity
  8
0
  6
Continuous
100
AcDbLine
 10
-0.0629919999999998
 20
-0.0363684437984
 30
0.0
 11
0.0
 21
-0.0727368938959999
 31
0.0
  0
CIRCLE
  5
77CE
330
77C9
100
AcDbEntity
  8
0
  6
Continuous
100
AcDbCircle
 10
0.0
 20
0.0
 30
0.0
 40
0.062992
  0
LINE
  5
77CF
330
77C9
100
AcDbEntity
  8
0
  6
Continuous
100
AcDbLine
 10
0.0629919999999998
 20
0.0363684437984
 30
0.0
 11
0.0
 21
0.0727368938959999
 31
0.0
  0
LINE
  5
77D0
330
77C9
100
AcDbEntity
  8
0
  6
Continuous
100
AcDbLine
 10
-0.0629919999999998
 20
-0.0363684437984
 30
0.0
 11
-0.0629919999999998
 21
0.0363684437984
 31
0.0
  0
LINE
  5
77D1
330
77C9
100
AcDbEntity
  8
0
  6
Continuous
100
AcDbLine
 10
-0.0629919999999998
 20
0.0363684437984
 30
0.0
 11
0.0
 21
0.0727368938959999
 31
0.0
  0
LINE
  5
77D2
330
77C9
100
AcDbEntity
  8
0
  6
Continuous
100
AcDbLine
 10
0.0629919999999998
 20
-0.0363684437984
 30
0.0
 11
0.0629919999999998
 21
0.0363684437984
 31
0.0
  0
ENDBLK
  5
77D3
330
77C9
100
AcDbEntity
  8
0
100
AcDbBlockEnd
  0
BLOCK
  5
8837
330
8836
100
AcDbEntity
  8
0
100
AcDbBlockBegin
  2
*D36
 70
     1
 10
0.0
 20
0.0
 30
0.0
  3
*D36
  1

  0
LINE
  5
90BD
330
8836
100
AcDbEntity
  8
Text
 62
     7
440
 16777216
370
    -2
100
AcDbLine
 10
41.96305630202135
 20
568.2633960003031
 30
0.0
 11
41.96305630202135
 21
573.209168476859
 31
0.0
  0
LINE
  5
90BE
330
8836
100
AcDbEntity
  8
Text
 62
     7
440
 16777216
370
    -2
100
AcDbLine
 10
127.6773420391136
 20
566.7048588009421
 30
0.0
 11
127.6773420391136
 21
573.209168476859
 31
0.0
  0
LINE
  5
90BF
330
8836
100
AcDbEntity
  8
Text
 62
     7
440
 16777216
370
    -2
100
AcDbLine
 10
41.96305630202135
 20
572.209168476859
 30
0.0
 11
127.6773420391136
 21
572.209168476859
 31
0.0
  0
INSERT
  5
90C0
330
8836
100
AcDbEntity
  8
Text
 62
     7
440
 16777216
370
    -2
100
AcDbBlockReference
  2
_ArchTick
 10
41.96305630202135
 20
572.209168476859
 30
0.0
 41
2.0
 42
2.0
 43
2.0
 50
180.0
  0
INSERT
  5
90C1
330
8836
100
AcDbEntity
  8
Text
 62
     7
440
 16777216
370
    -2
100
AcDbBlockReference
  2
_ArchTick
 10
127.6773420391136
 20
572.209168476859
 30
0.0
 41
2.0
 42
2.0
 43
2.0
  0
MTEXT
  5
90C2
102
{ACAD_XDICTIONARY
360
918E
102
}
330
8836
100
AcDbEntity
  8
Text
 62
     0
440
 16777216
100
AcDbMText
 10
84.82019917056751
 20
576.9566226520118
 30
0.0
 40
2.5
 41
0.0
 71
     5
 72
     1
  1
\A1;600mm wide Supercrete\U+2122 Panel \P(one full panel)
  7
1
 73
     1
 44
1.0
  0
POINT
  5
90C3
330
8836
100
AcDbEntity
  8
DEFPOINTS
 62
     0
440
 16777216
100
AcDbPoint
 10
41.96305630202135
 20
567.2633960003031
 30
0.0
  0
POINT
  5
90C4
330
8836
100
AcDbEntity
  8
DEFPOINTS
 62
     0
440
 16777216
100
AcDbPoint
 10
127.6773420391136
 20
565.7048588009421
 30
0.0
  0
POINT
  5
90C5
330
8836
100
AcDbEntity
  8
DEFPOINTS
 62
     0
440
 16777216
100
AcDbPoint
 10
127.6773420391136
 20
572.209168476859
 30
0.0
  0
ENDBLK
  5
8838
330
8836
100
AcDbEntity
  8
0
100
AcDbBlockEnd
  0
BLOCK
  5
89E9
330
89E8
100
AcDbEntity
  8
0
100
AcDbBlockBegin
  2
*D37
 70
     1
 10
0.0
 20
0.0
 30
0.0
  3
*D37
  1

  0
LINE
  5
8ED1
330
89E8
100
AcDbEntity
  8
Text
 62
     7
440
 16777216
370
    -2
100
AcDbLine
 10
77.6916277392213
 20
504.3001801560994
 30
0.0
 11
77.6916277392213
 21
490.8976201542778
 31
0.0
  0
LINE
  5
8ED2
330
89E8
100
AcDbEntity
  8
Text
 62
     7
440
 16777216
370
    -2
100
AcDbLine
 10
84.83448488397899
 20
497.8716087258186
 30
0.0
 11
84.83448488397899
 21
490.8976201542778
 31
0.0
  0
LINE
  5
8ED3
330
89E8
100
AcDbEntity
  8
Text
 62
     7
440
 16777216
370
    -2
100
AcDbLine
 10
77.6916277392213
 20
491.8976201542778
 30
0.0
 11
84.83448488397899
 21
491.8976201542778
 31
0.0
  0
INSERT
  5
8ED4
330
89E8
100
AcDbEntity
  8
Text
 62
     7
440
 16777216
370
    -2
100
AcDbBlockReference
  2
_ArchTick
 10
77.6916277392213
 20
491.8976201542778
 30
0.0
 41
2.0
 42
2.0
 43
2.0
 50
180.0
  0
INSERT
  5
8ED5
330
89E8
100
AcDbEntity
  8
Text
 62
     7
440
 16777216
370
    -2
100
AcDbBlockReference
  2
_ArchTick
 10
84.83448488397899
 20
491.8976201542778
 30
0.0
 41
2.0
 42
2.0
 43
2.0
  0
MTEXT
  5
8ED6
330
89E8
100
AcDbEntity
  8
Text
 62
     0
440
 16777216
100
AcDbMText
 10
81.26305631160013
 20
494.1824130938569
 30
0.0
 40
2.5
 41
0.0
 71
     5
 72
     1
  1
\A1;50
  7
1
 73
     1
 44
1.0
  0
POINT
  5
8ED7
330
89E8
100
AcDbEntity
  8
DEFPOINTS
 62
     0
440
 16777216
100
AcDbPoint
 10
77.6916277392213
 20
505.3001801560994
 30
0.0
  0
POINT
  5
8ED8
330
89E8
100
AcDbEntity
  8
DEFPOINTS
 62
     0
440
 16777216
100
AcDbPoint
 10
84.83448488397899
 20
498.8716087258186
 30
0.0
  0
POINT
  5
8ED9
330
89E8
100
AcDbEntity
  8
DEFPOINTS
 62
     0
440
 16777216
100
AcDbPoint
 10
84.83448488397899
 20
491.8976201542778
 30
0.0
  0
ENDBLK
  5
89EA
330
89E8
100
AcDbEntity
  8
0
100
AcDbBlockEnd
  0
BLOCK
  5
8A06
330
8A05
100
AcDbEntity
  8
0
100
AcDbBlockBegin
  2
*D38
 70
     1
 10
0.0
 20
0.0
 30
0.0
  3
*D38
  1

  0
LINE
  5
8EDD
330
8A05
100
AcDbEntity
  8
Text
 62
     7
440
 16777216
370
    -2
100
AcDbLine
 10
84.83448488397897
 20
497.871608725818
 30
0.0
 11
84.83448488397897
 21
490.8976201542773
 31
0.0
  0
LINE
  5
8EDE
330
8A05
100
AcDbEntity
  8
Text
 62
     7
440
 16777216
370
    -2
100
AcDbLine
 10
91.97734202873666
 20
504.3001801560989
 30
0.0
 11
91.97734202873666
 21
490.8976201542773
 31
0.0
  0
LINE
  5
8EDF
330
8A05
100
AcDbEntity
  8
Text
 62
     7
440
 16777216
370
    -2
100
AcDbLine
 10
84.83448488397897
 20
491.8976201542773
 30
0.0
 11
91.97734202873666
 21
491.8976201542773
 31
0.0
  0
INSERT
  5
8EE0
330
8A05
100
AcDbEntity
  8
Text
 62
     7
440
 16777216
370
    -2
100
AcDbBlockReference
  2
_ArchTick
 10
84.83448488397897
 20
491.8976201542773
 30
0.0
 41
2.0
 42
2.0
 43
2.0
 50
180.0
  0
INSERT
  5
8EE1
330
8A05
100
AcDbEntity
  8
Text
 62
     7
440
 16777216
370
    -2
100
AcDbBlockReference
  2
_ArchTick
 10
91.97734202873666
 20
491.8976201542773
 30
0.0
 41
2.0
 42
2.0
 43
2.0
  0
MTEXT
  5
8EE2
330
8A05
100
AcDbEntity
  8
Text
 62
     0
440
 16777216
100
AcDbMText
 10
88.40591345635782
 20
494.1824130938563
 30
0.0
 40
2.5
 41
0.0
 71
     5
 72
     1
  1
\A1;50
  7
1
 73
     1
 44
1.0
  0
POINT
  5
8EE3
330
8A05
100
AcDbEntity
  8
DEFPOINTS
 62
     0
440
 16777216
100
AcDbPoint
 10
84.83448488397897
 20
498.8716087258181
 30
0.0
  0
POINT
  5
8EE4
330
8A05
100
AcDbEntity
  8
DEFPOINTS
 62
     0
440
 16777216
100
AcDbPoint
 10
91.97734202873666
 20
505.3001801560989
 30
0.0
  0
POINT
  5
8EE5
330
8A05
100
AcDbEntity
  8
DEFPOINTS
 62
     0
440
 16777216
100
AcDbPoint
 10
91.97734202873666
 20
491.8976201542773
 30
0.0
  0
ENDBLK
  5
8A07
330
8A05
100
AcDbEntity
  8
0
100
AcDbBlockEnd
  0
BLOCK
  5
8A23
330
8A21
100
AcDbEntity
  8
0
100
AcDbBlockBegin
  2
_ArchTick
 70
     0
 10
0.0
 20
0.0
 30
0.0
  3
_ArchTick
  1

  0
LWPOLYLINE
  5
8A22
330
8A21
100
AcDbEntity
  8
0
  6
ByBlock
 62
     0
100
AcDbPolyline
 90
        2
 70
     0
 43
0.15
 10
-0.5
 20
-0.5
 10
0.5
 20
0.5
  0
ENDBLK
  5
8A24
330
8A21
100
AcDbEntity
  8
0
100
AcDbBlockEnd
  0
BLOCK
  5
9439
330
9438
100
AcDbEntity
  8
0
100
AcDbBlockBegin
  2
*D45
 70
     1
 10
0.0
 20
0.0
 30
0.0
  3
*D45
  1

  0
LINE
  5
94BD
330
9438
100
AcDbEntity
  8
Text
 62
     7
440
 16777216
370
    -2
100
AcDbLine
 10
3214.444770684848
 20
42942.87958993367
 30
0.0
 11
3214.444770684848
 21
42977.49999726959
 31
0.0
  0
LINE
  5
94BE
330
9438
100
AcDbEntity
  8
Text
 62
     7
440
 16777216
370
    -2
100
AcDbLine
 10
3814.444770844494
 20
42931.96982953814
 30
0.0
 11
3814.444770844494
 21
42977.49999726959
 31
0.0
  0
LINE
  5
94BF
330
9438
100
AcDbEntity
  8
Text
 62
     7
440
 16777216
370
    -2
100
AcDbLine
 10
3235.444770684848
 20
42970.49999726959
 30
0.0
 11
3793.444770844494
 21
42970.49999726959
 31
0.0
  0
SOLID
  5
94C0
330
9438
100
AcDbEntity
  8
Text
 62
     7
440
 16777216
100
AcDbTrace
 10
3235.444770684848
 20
42973.99999726959
 30
0.0
 11
3235.444770684848
 21
42966.9999972696
 31
0.0
 12
3214.444770684848
 22
42970.49999726959
 32
0.0
 13
3214.444770684848
 23
42970.49999726959
 33
0.0
  0
SOLID
  5
94C1
330
9438
100
AcDbEntity
  8
Text
 62
     7
440
 16777216
100
AcDbTrace
 10
3793.444770844494
 20
42973.99999726959
 30
0.0
 11
3793.444770844494
 21
42966.9999972696
 31
0.0
 12
3814.444770844494
 22
42970.49999726959
 32
0.0
 13
3814.444770844494
 23
42970.49999726959
 33
0.0
  0
MTEXT
  5
94C2
102
{ACAD_XDICTIONARY
360
95A4
102
}
330
9438
100
AcDbEntity
  8
Text
 62
     7
440
 16777216
100
AcDbMText
 10
3514.444770764671
 20
43003.73217649566
 30
0.0
 40
17.5
 41
0.0
 71
     5
 72
     1
  1
\A1;600mm wide Supercrete\U+2122 Panel \P(one full panel)
  7
7
 73
     1
 44
1.0
  0
POINT
  5
94C3
330
9438
100
AcDbEntity
  8
DEFPOINTS
 62
     0
440
 16777216
100
AcDbPoint
 10
3214.444770684848
 20
42935.87958993366
 30
0.0
  0
POINT
  5
94C4
330
9438
100
AcDbEntity
  8
DEFPOINTS
 62
     0
440
 16777216
100
AcDbPoint
 10
3814.444770844494
 20
42924.96982953814
 30
0.0
  0
POINT
  5
94C5
330
9438
100
AcDbEntity
  8
DEFPOINTS
 62
     0
440
 16777216
100
AcDbPoint
 10
3814.444770844494
 20
42970.49999726959
 30
0.0
  0
ENDBLK
  5
943A
330
9438
100
AcDbEntity
  8
0
100
AcDbBlockEnd
  0
BLOCK
  5
9445
330
9444
100
AcDbEntity
  8
0
100
AcDbBlockBegin
  2
*D46
 70
     1
 10
0.0
 20
0.0
 30
0.0
  3
*D46
  1

  0
LINE
  5
94C6
330
9444
100
AcDbEntity
  8
Text
 62
     7
440
 16777216
370
    -2
100
AcDbLine
 10
3464.544770745248
 20
42495.13707902422
 30
0.0
 11
3464.544770745248
 21
42401.31915901147
 31
0.0
  0
LINE
  5
94C7
330
9444
100
AcDbEntity
  8
Text
 62
     7
440
 16777216
370
    -2
100
AcDbLine
 10
3514.544770758552
 20
42450.13707901229
 30
0.0
 11
3514.544770758552
 21
42401.31915901147
 31
0.0
  0
LINE
  5
94C8
330
9444
100
AcDbEntity
  8
Text
 62
     7
440
 16777216
370
    -2
100
AcDbLine
 10
3443.544770745248
 20
42408.31915901147
 30
0.0
 11
3422.544770745247
 21
42408.31915901147
 31
0.0
  0
LINE
  5
94C9
330
9444
100
AcDbEntity
  8
Text
 62
     7
440
 16777216
370
    -2
100
AcDbLine
 10
3535.544770758552
 20
42408.31915901147
 30
0.0
 11
3556.544770758552
 21
42408.31915901147
 31
0.0
  0
SOLID
  5
94CA
330
9444
100
AcDbEntity
  8
Text
 62
     7
440
 16777216
100
AcDbTrace
 10
3443.544770745248
 20
42411.81915901147
 30
0.0
 11
3443.544770745248
 21
42404.81915901147
 31
0.0
 12
3464.544770745248
 22
42408.31915901147
 32
0.0
 13
3464.544770745248
 23
42408.31915901147
 33
0.0
  0
SOLID
  5
94CB
330
9444
100
AcDbEntity
  8
Text
 62
     7
440
 16777216
100
AcDbTrace
 10
3535.544770758552
 20
42411.81915901147
 30
0.0
 11
3535.544770758552
 21
42404.81915901147
 31
0.0
 12
3514.544770758552
 22
42408.31915901147
 32
0.0
 13
3514.544770758552
 23
42408.31915901147
 33
0.0
  0
MTEXT
  5
94CC
330
9444
100
AcDbEntity
  8
Text
 62
     7
440
 16777216
100
AcDbMText
 10
3489.5447707519
 20
42424.31270958853
 30
0.0
 40
17.5
 41
0.0
 71
     5
 72
     1
  1
\A1;50
  7
7
 73
     1
 44
1.0
  0
POINT
  5
94CD
330
9444
100
AcDbEntity
  8
DEFPOINTS
 62
     0
440
 16777216
100
AcDbPoint
 10
3464.544770745248
 20
42502.13707902422
 30
0.0
  0
POINT
  5
94CE
330
9444
100
AcDbEntity
  8
DEFPOINTS
 62
     0
440
 16777216
100
AcDbPoint
 10
3514.544770758552
 20
42457.13707901229
 30
0.0
  0
POINT
  5
94CF
330
9444
100
AcDbEntity
  8
DEFPOINTS
 62
     0
440
 16777216
100
AcDbPoint
 10
3514.544770758552
 20
42408.31915901147
 30
0.0
  0
ENDBLK
  5
9446
330
9444
100
AcDbEntity
  8
0
100
AcDbBlockEnd
  0
BLOCK
  5
9451
330
9450
100
AcDbEntity
  8
0
100
AcDbBlockBegin
  2
*D47
 70
     1
 10
0.0
 20
0.0
 30
0.0
  3
*D47
  1

  0
LINE
  5
94D0
330
9450
100
AcDbEntity
  8
Text
 62
     7
440
 16777216
370
    -2
100
AcDbLine
 10
3514.544770758552
 20
42450.13707901229
 30
0.0
 11
3514.544770758552
 21
42401.31915901147
 31
0.0
  0
LINE
  5
94D1
330
9450
100
AcDbEntity
  8
Text
 62
     7
440
 16777216
370
    -2
100
AcDbLine
 10
3564.544770771856
 20
42495.13707902422
 30
0.0
 11
3564.544770771856
 21
42401.31915901147
 31
0.0
  0
LINE
  5
94D2
330
9450
100
AcDbEntity
  8
Text
 62
     7
440
 16777216
370
    -2
100
AcDbLine
 10
3493.544770758552
 20
42408.31915901147
 30
0.0
 11
3472.544770758552
 21
42408.31915901147
 31
0.0
  0
LINE
  5
94D3
330
9450
100
AcDbEntity
  8
Text
 62
     7
440
 16777216
370
    -2
100
AcDbLine
 10
3585.544770771856
 20
42408.31915901147
 30
0.0
 11
3606.544770771856
 21
42408.31915901147
 31
0.0
  0
SOLID
  5
94D4
330
9450
100
AcDbEntity
  8
Text
 62
     7
440
 16777216
100
AcDbTrace
 10
3493.544770758552
 20
42411.81915901147
 30
0.0
 11
3493.544770758552
 21
42404.81915901147
 31
0.0
 12
3514.544770758552
 22
42408.31915901147
 32
0.0
 13
3514.544770758552
 23
42408.31915901147
 33
0.0
  0
SOLID
  5
94D5
330
9450
100
AcDbEntity
  8
Text
 62
     7
440
 16777216
100
AcDbTrace
 10
3585.544770771856
 20
42411.81915901147
 30
0.0
 11
3585.544770771856
 21
42404.81915901147
 31
0.0
 12
3564.544770771856
 22
42408.31915901147
 32
0.0
 13
3564.544770771856
 23
42408.31915901147
 33
0.0
  0
MTEXT
  5
94D6
330
9450
100
AcDbEntity
  8
Text
 62
     7
440
 16777216
100
AcDbMText
 10
3539.544770765204
 20
42424.31270958853
 30
0.0
 40
17.5
 41
0.0
 71
     5
 72
     1
  1
\A1;50
  7
7
 73
     1
 44
1.0
  0
POINT
  5
94D7
330
9450
100
AcDbEntity
  8
DEFPOINTS
 62
     0
440
 16777216
100
AcDbPoint
 10
3514.544770758552
 20
42457.13707901229
 30
0.0
  0
POINT
  5
94D8
330
9450
100
AcDbEntity
  8
DEFPOINTS
 62
     0
440
 16777216
100
AcDbPoint
 10
3564.544770771856
 20
42502.13707902422
 30
0.0
  0
POINT
  5
94D9
330
9450
100
AcDbEntity
  8
DEFPOINTS
 62
     0
440
 16777216
100
AcDbPoint
 10
3564.544770771856
 20
42408.31915901147
 30
0.0
  0
ENDBLK
  5
9452
330
9450
100
AcDbEntity
  8
0
100
AcDbBlockEnd
  0
ENDSEC
  0
SECTION
  2
ENTITIES
  0
LINE
  5
3751
330
2
100
AcDbEntity
  8
Concrete
370
    50
100
AcDbLine
 10
4014.771376006144
 20
42457.13707901225
 30
0.0
 11
3014.31816577716
 21
42457.13707901229
 31
0.0
  0
SPLINE
  5
375F
330
2
100
AcDbEntity
  8
DEFPOINTS
100
AcDbSpline
210
0.0
220
0.0
230
1.0
 70
  1064
 71
     3
 72
    16
 73
    12
 74
    10
 42
0.000000001
 43
0.0000000001
 44
0.00001
 40
0.0
 40
0.0
 40
0.0
 40
0.0
 40
95.03428660795199
 40
217.2301648132188
 40
319.1959445547839
 40
471.8239004795413
 40
617.8176636977858
 40
765.5116160429066
 40
908.5439029847604
 40
994.795082836371
 40
1103.634873846075
 40
1103.634873846075
 40
1103.634873846075
 40
1103.634873846075
 10
4014.771376006144
 20
42457.13707901225
 30
0.0
 10
3988.374899345165
 20
42438.90834407038
 30
0.0
 10
3928.037617824947
 20
42397.24094103979
 30
0.0
 10
3812.36707612336
 20
42396.50309789226
 30
0.0
 10
3724.797027478665
 20
42302.50149154008
 30
0.0
 10
3584.353274593024
 20
42243.52781151258
 30
0.0
 10
3450.943362513442
 20
42356.66684345615
 30
0.0
 10
3308.526391160259
 20
42281.72290243052
 30
0.0
 10
3169.442427734324
 20
42318.47853622994
 30
0.0
 10
3115.624261105204
 20
42425.61419153706
 30
0.0
 10
3050.596604790453
 20
42445.8485019729
 30
0.0
 10
3014.31816577716
 20
42457.13707901229
 30
0.0
 11
4014.771376006144
 21
42457.13707901225
 31
0.0
 11
3932.063647733282
 21
42410.32950999009
 31
0.0
 11
3813.693612756098
 21
42379.99195986466
 31
0.0
 11
3731.745130597538
 21
42319.31685961386
 31
0.0
 11
3586.058934900819
 21
42273.81053955921
 31
0.0
 11
3449.478115725424
 21
42325.38437579906
 31
0.0
 11
3303.79192002872
 21
42301.11433159201
 31
0.0
 11
3167.211116431121
 21
42343.58690382094
 31
0.0
 11
3112.578794992066
 21
42410.32950999009
 31
0.0
 11
3014.31816577716
 21
42457.13707901229
 31
0.0
  0
HATCH
  5
37DF
330
2
100
AcDbEntity
  8
Concrete
100
AcDbHatch
 10
0.0
 20
0.0
 30
0.0
210
0.0
220
0.0
230
1.0
  2
AR-CONC
 70
     0
 71
     0
 91
        1
 92
        5
 93
        7
 72
     4
 94
        3
 73
     0
 74
     0
 95
       16
 96
       12
 40
0.0
 40
0.0
 40
0.0
 40
0.0
 40
26.6294258828008
 40
47.73218078630515
 40
82.72735783282504
 40
118.8630862798463
 40
154.5828380812421
 40
191.9257514299973
 40
216.8733404932455
 40
246.770550335767
 40
270.0222368047156
 40
270.0222368047156
 40
270.0222368047156
 40
270.0222368047156
 10
3014.31816577716
 20
42457.13707901229
 10
3050.596604276633
 20
42445.84850213276
 10
3115.624254242612
 20
42425.61417959034
 10
3169.442422832279
 20
42318.47852939901
 10
3308.526384668316
 20
42281.7228918805
 10
3450.943357185215
 20
42356.66684080615
 10
3584.353267055153
 20
42243.52780210375
 10
3724.797030002465
 20
42302.50147752468
 10
3812.367062433155
 20
42396.50310780152
 10
3928.037609953276
 20
42397.24094771438
 10
3988.374897587533
 20
42438.90834285661
 10
4014.771376006144
 20
42457.13707901225
 72
     1
 10
4014.771376006176
 20
42457.13707901229
 11
3530.803810409513
 21
42457.13707901229
 72
     1
 10
3530.803810409515
 20
42457.13707901229
 11
3530.803810409515
 21
42358.02247901223
 72
     1
 10
3530.803810409515
 20
42358.02247901223
 11
3524.673010409518
 21
42337.58647901226
 72
     1
 10
3524.673010409518
 20
42337.58647901225
 11
3518.542210409515
 21
42358.02247901226
 72
     1
 10
3518.542210409516
 20
42358.02247901226
 11
3518.542210409516
 21
42457.13707901229
 72
     1
 10
3518.542210409516
 20
42457.13707901229
 11
3014.318165777201
 21
42457.13707901229
 97
        0
 75
     0
 76
     1
 52
180.0
 41
5.0
 77
     0
 78
    13
 53
230.0
 43
3404.120469275017
 44
42608.8726224484
 45
-35.86300913003768
 46
3.137606749129759
 79
     2
 49
3.75
 49
-41.25
 53
175.0
 43
3404.120469275017
 44
42608.8726224484
 45
6.937566680649996
 46
-37.6096066850006
 79
     2
 49
3.0
 49
-33.0
 53
280.4514
 43
3401.131885275017
 44
42609.13408944839
 45
-28.92546908570108
 46
-34.47197710304768
 79
     2
 49
3.1870095
 49
-35.0571056
 53
226.1842
 43
3404.120469275017
 44
42598.8726224484
 45
-53.36205243128222
 46
8.27595071645091
 79
     2
 49
5.625
 49
-61.875
 53
276.6356
 43
3399.673632025017
 44
42599.5622877984
 45
-46.73313527743517
 46
-48.70589354502207
 79
     2
 49
4.780514399999998
 49
-52.58564999999999
 53
171.1841999999999
 43
3404.120469275017
 44
42598.8726224484
 45
-46.73309725668136
 46
-48.70593004626623
 79
     2
 49
4.5
 49
-49.5
 53
201.0
 43
3399.120469275017
 44
42601.3726224484
 45
-29.84535260592308
 46
20.13094453326695
 79
     2
 49
3.75
 49
-41.25
 53
146.0
 43
3399.120469275017
 44
42601.3726224484
 45
-12.16576659607909
 46
-36.25750225234265
 79
     2
 49
3.0
 49
-33.0
 53
251.4514000000001
 43
3396.633357625017
 44
42603.0502027484
 45
-42.01113142907449
 46
-16.12652483549761
 79
     2
 49
3.187009499999999
 49
-35.05710559999999
 53
217.5
 43
3404.120469275017
 44
42608.8726224484
 45
-0.6079927658645355
 46
-16.64469269156557
 79
     6
 49
0.0
 49
-32.6
 49
0.0
 49
-33.5
 49
0.0
 49
-33.125
 53
187.5
 43
3404.120469275017
 44
42608.8726224484
 45
-13.15347687210743
 46
-19.72058559411801
 79
     6
 49
0.0
 49
-19.1
 49
0.0
 49
-31.85
 49
0.0
 49
-12.625
 53
147.4999999999999
 43
3415.270469275017
 44
42608.8726224484
 45
-26.69112180862045
 46
1.127743586718993
 79
     6
 49
0.0
 49
-12.5
 49
0.0
 49
-39.0
 49
0.0
 49
-51.75
 53
137.5
 43
3420.270469275017
 44
42608.8726224484
 45
-29.15930846711931
 46
-5.005249116615878
 79
     6
 49
0.0
 49
-16.25
 49
0.0
 49
-25.9
 49
0.0
 49
-36.75
 47
0.4540763080453822
 98
        1
 10
3378.353567928428
 20
42396.18134930128
1001
ACAD
1010
3404.120469275017
1020
42608.8726224484
1030
0.0
  0
LINE
  5
5795
102
{ACAD_REACTORS
330
8A1D
102
}
330
2
100
AcDbEntity
  8
Timber Elevation
100
AcDbLine
 10
3014.318165777161
 20
42502.13707901223
 30
0.0
 11
4014.771376006144
 21
42502.1370790123
 31
0.0
  0
INSERT
  5
57A2
330
2
100
AcDbEntity
  8
Fixings & brackets
100
AcDbBlockReference
  2
25 long screw
 10
4353.043368159004
 20
21793.68525607268
 30
0.0
 41
-1.0
 50
270.0
  0
LINE
  5
7411
330
2
100
AcDbEntity
  8
DEFPOINTS
100
AcDbLine
 10
4014.771376006144
 20
42457.13707901225
 30
0.0
 11
4014.771376006144
 21
43310.00464558003
 31
0.0
  0
LINE
  5
7412
330
2
100
AcDbEntity
  8
DEFPOINTS
100
AcDbLine
 10
3014.318165777161
 20
42457.1370790123
 30
0.0
 11
3014.318165777161
 21
43310.00464558007
 31
0.0
  0
LINE
  5
7414
330
2
100
AcDbEntity
  8
Timber Elevation
100
AcDbLine
 10
3191.544770891651
 20
42502.13707901224
 30
0.0
 11
3191.544770891651
 21
42865.8919259214
 31
0.0
  0
LINE
  5
7415
330
2
100
AcDbEntity
  8
Timber Elevation
100
AcDbLine
 10
3837.544770891653
 20
42502.13707901228
 30
0.0
 11
3837.544770891653
 21
42817.83271155384
 31
0.0
  0
LINE
  5
7416
330
2
100
AcDbEntity
  8
Timber Elevation
100
AcDbLine
 10
3237.544770891651
 20
42502.13707901224
 30
0.0
 11
3237.544770891651
 21
42857.17567493551
 31
0.0
  0
LINE
  5
7417
330
2
100
AcDbEntity
  8
Timber Elevation
100
AcDbLine
 10
3791.544770891652
 20
42502.13707901228
 30
0.0
 11
3791.544770891652
 21
42809.78343898672
 31
0.0
  0
LINE
  5
7420
330
2
100
AcDbEntity
  8
Timber Elevation
100
AcDbLine
 10
4014.771376006144
 20
43310.00464558003
 30
0.0
 11
3014.31816577716
 21
43310.00464557999
 31
0.0
  0
LINE
  5
7421
330
2
100
AcDbEntity
  8
Timber Elevation
100
AcDbLine
 10
3014.318165777161
 20
43265.00464558006
 30
0.0
 11
4014.771376006144
 21
43265.00464557999
 31
0.0
  0
SPLINE
  5
7687
330
2
100
AcDbEntity
  8
0
370
     9
100
AcDbSpline
210
0.0
220
0.0
230
1.0
 70
  1064
 71
     3
 72
    13
 73
     9
 74
     7
 42
0.000000001
 43
0.0000000001
 44
0.0000000001
 40
0.0
 40
0.0
 40
0.0
 40
0.0
 40
157.424032083686
 40
338.867601057876
 40
525.8961254308618
 40
673.2516949281792
 40
855.3945334481571
 40
1021.363181745015
 40
1021.363181745015
 40
1021.363181745015
 40
1021.363181745015
 10
3014.318165777161
 20
42933.57086229619
 30
0.0
 10
3066.808039645913
 20
42930.18436893841
 30
0.0
 10
3179.796618341948
 20
42922.89467584036
 30
0.0
 10
3350.051283734075
 20
42880.85952364677
 30
0.0
 10
3518.521874496553
 20
42838.65858010702
 30
0.0
 10
3691.050048629666
 20
42850.17418296802
 30
0.0
 10
3857.638994892211
 20
42861.75776693627
 30
0.0
 10
3964.041835773321
 20
42910.38630107155
 30
0.0
 10
4014.771376006144
 20
42933.57086229614
 30
0.0
 11
3014.318165777161
 21
42933.57086229619
 31
0.0
 11
3171.07928721705
 21
42919.13906814599
 31
0.0
 11
3348.498772673655
 21
42881.13781945065
 31
0.0
 11
3532.254665747445
 21
42846.30334385835
 31
0.0
 11
3679.576203293917
 21
42849.47011458297
 31
0.0
 11
3860.163894363497
 21
42873.22089263912
 31
0.0
 11
4014.771376006144
 21
42933.57086229614
 31
0.0
  0
SPLINE
  5
7688
330
2
100
AcDbEntity
  8
0
370
     9
100
AcDbSpline
210
0.0
220
0.0
230
1.0
 70
  1064
 71
     3
 72
    13
 73
     9
 74
     7
 42
0.000000001
 43
0.0000000001
 44
0.0000000001
 40
0.0
 40
0.0
 40
0.0
 40
0.0
 40
157.424032083686
 40
338.867601057876
 40
525.8961254308618
 40
673.2516949281792
 40
855.3945334481571
 40
1021.363181745015
 40
1021.363181745015
 40
1021.363181745015
 40
1021.363181745015
 10
3014.318165777161
 20
42883.57086229619
 30
0.0
 10
3066.808039645913
 20
42880.18436893842
 30
0.0
 10
3179.796618341948
 20
42872.89467584037
 30
0.0
 10
3350.051283734075
 20
42830.85952364676
 30
0.0
 10
3518.521874496553
 20
42788.65858010703
 30
0.0
 10
3691.050048629666
 20
42800.17418296801
 30
0.0
 10
3857.638994892211
 20
42811.75776693627
 30
0.0
 10
3964.041835773321
 20
42860.38630107155
 30
0.0
 10
4014.771376006144
 20
42883.57086229614
 30
0.0
 11
3014.318165777161
 21
42883.57086229619
 31
0.0
 11
3171.07928721705
 21
42869.13906814598
 31
0.0
 11
3348.498772673655
 21
42831.13781945065
 31
0.0
 11
3532.254665747445
 21
42796.30334385835
 31
0.0
 11
3679.576203293917
 21
42799.47011458297
 31
0.0
 11
3860.163894363497
 21
42823.22089263911
 31
0.0
 11
4014.771376006144
 21
42883.57086229614
 31
0.0
  0
LINE
  5
7689
330
2
100
AcDbEntity
  8
Timber Elevation
100
AcDbLine
 10
3791.544770891652
 20
42859.78343898673
 30
0.0
 11
3791.544770891652
 21
43265.00464558
 31
0.0
  0
LINE
  5
768A
330
2
100
AcDbEntity
  8
Timber Elevation
100
AcDbLine
 10
3837.544770891653
 20
42867.83271155385
 30
0.0
 11
3837.544770891653
 21
43265.00464557999
 31
0.0
  0
LINE
  5
7787
330
2
100
AcDbEntity
  8
Timber Elevation
100
AcDbLine
 10
3237.544770891651
 20
42907.17567493551
 30
0.0
 11
3237.544770891651
 21
43265.00464558003
 31
0.0
  0
LINE
  5
7788
330
2
100
AcDbEntity
  8
Timber Elevation
100
AcDbLine
 10
3191.544770891651
 20
42915.8919259214
 30
0.0
 11
3191.544770891651
 21
43265.00464558003
 31
0.0
  0
LWPOLYLINE
  5
77C5
330
2
100
AcDbEntity
  8
Steel
100
AcDbPolyline
 90
        4
 70
     1
 43
0.0
 10
3489.544770891652
 20
42502.13707901226
 10
3539.544770891652
 20
42502.13707901226
 10
3539.544770891652
 20
42542.13707901226
 10
3489.544770891652
 20
42542.13707901226
  0
LINE
  5
77C6
330
2
100
AcDbEntity
  8
Steel
100
AcDbLine
 10
3489.544770891652
 20
42503.73707901227
 30
0.0
 11
3539.544770891652
 21
42503.73707901227
 31
0.0
  0
INSERT
  5
77C7
330
2
100
AcDbEntity
  8
Fixings & brackets
100
AcDbBlockReference
  2
25 long screw
 10
4383.043368159003
 20
21793.68525607268
 30
0.0
 41
-1.0
 50
270.0
  0
INSERT
  5
7BD3
330
2
100
AcDbEntity
  8
Fixings & brackets
100
AcDbBlockReference
 66
     1
  2
M2 Hex Head Bolt Pv
 10
3529.544770891652
 20
42514.00996572159
 30
0.0
 41
25.39999999999987
 42
25.40000000000151
 43
25.39999999999987
 50
29.9999999999997
  0
ATTRIB
  5
7BD4
330
7BD3
100
AcDbEntity
  8
0
100
AcDbText
 10
3529.544770891652
 20
42514.00996572159
 30
0.0
 40
0.0021673095018689
  1

 50
29.99999999995821
 41
0.8
  7
ATTR
100
AcDbAttribute
  2
ESTCODE
 70
     9
  0
SEQEND
  5
7BD5
330
7BD3
100
AcDbEntity
  8
Fixings & brackets
  0
CIRCLE
  5
7BD6
330
2
100
AcDbEntity
  8
Fixings & brackets
100
AcDbCircle
 10
3529.544770891652
 20
42514.00996572159
 30
0.0
 40
3.066388602237111
  0
INSERT
  5
7BD7
330
2
100
AcDbEntity
  8
Fixings & brackets
100
AcDbBlockReference
 66
     1
  2
M2 Hex Head Bolt Pv
 10
3499.544770891652
 20
42531.38614481753
 30
0.0
 41
-25.3999999999985
 42
25.40000000000873
 43
25.4
 50
150.0000000000056
  0
ATTRIB
  5
7BD8
330
7BD7
100
AcDbEntity
  8
0
100
AcDbText
 10
3499.544770891652
 20
42531.38614481753
 30
0.0
 40
0.0021673095018689
  1

 50
330.0000000000105
 41
0.8
  7
ATTR
100
AcDbAttribute
  2
ESTCODE
 70
     9
  0
SEQEND
  5
7BD9
330
7BD7
100
AcDbEntity
  8
Fixings & brackets
  0
CIRCLE
  5
7BDA
330
2
100
AcDbEntity
  8
Fixings & brackets
100
AcDbCircle
 10
3499.544770891652
 20
42531.38614481753
 30
0.0
 40
3.066388602237111
  0
INSERT
  5
7BE0
330
2
100
AcDbEntity
  8
Fixings & brackets
100
AcDbBlockReference
  2
25 long screw
 10
4353.043368159004
 20
63973.4564685196
 30
0.0
 50
270.0
  0
LWPOLYLINE
  5
7BE1
330
2
100
AcDbEntity
  8
Steel
100
AcDbPolyline
 90
        4
 70
     1
 43
0.0
 10
3489.544770891652
 20
43265.00464558002
 10
3539.544770891652
 20
43265.00464558002
 10
3539.544770891652
 20
43225.00464558002
 10
3489.544770891652
 20
43225.00464558002
  0
LINE
  5
7BE2
330
2
100
AcDbEntity
  8
Steel
100
AcDbLine
 10
3489.544770891652
 20
43263.40464558002
 30
0.0
 11
3539.544770891652
 21
43263.40464558002
 31
0.0
  0
INSERT
  5
7BE3
330
2
100
AcDbEntity
  8
Fixings & brackets
100
AcDbBlockReference
  2
25 long screw
 10
4383.043368159003
 20
63973.4564685196
 30
0.0
 50
270.0
  0
INSERT
  5
7BE4
330
2
100
AcDbEntity
  8
Fixings & brackets
100
AcDbBlockReference
 66
     1
  2
M2 Hex Head Bolt Pv
 10
3529.544770891652
 20
43253.1317588707
 30
0.0
 41
-25.3999999999985
 42
25.40000000000873
 43
25.4
 50
150.0000000000056
  0
ATTRIB
  5
7BE5
330
7BE4
100
AcDbEntity
  8
0
100
AcDbText
 10
3529.544770891652
 20
43253.1317588707
 30
0.0
 40
0.0021673095018689
  1

 50
330.0000000000105
 41
0.8
  7
ATTR
100
AcDbAttribute
  2
ESTCODE
 70
     9
  0
SEQEND
  5
7BE6
330
7BE4
100
AcDbEntity
  8
Fixings & brackets
  0
CIRCLE
  5
7BE7
330
2
100
AcDbEntity
  8
Fixings & brackets
100
AcDbCircle
 10
3529.544770891652
 20
43253.1317588707
 30
0.0
 40
3.066388602237111
  0
INSERT
  5
7BE8
330
2
100
AcDbEntity
  8
Fixings & brackets
100
AcDbBlockReference
 66
     1
  2
M2 Hex Head Bolt Pv
 10
3499.544770891652
 20
43235.75557977476
 30
0.0
 41
25.3999999999985
 42
25.40000000000873
 43
25.4
 50
29.99999999999437
  0
ATTRIB
  5
7BE9
330
7BE8
100
AcDbEntity
  8
0
100
AcDbText
 10
3499.544770891652
 20
43235.75557977476
 30
0.0
 40
0.0021673095018689
  1

 50
29.99999999999739
 41
0.8
  7
ATTR
100
AcDbAttribute
  2
ESTCODE
 70
     9
  0
SEQEND
  5
7BEA
330
7BE8
100
AcDbEntity
  8
Fixings & brackets
  0
CIRCLE
  5
7BEB
330
2
100
AcDbEntity
  8
Fixings & brackets
100
AcDbCircle
 10
3499.544770891652
 20
43235.75557977476
 30
0.0
 40
3.066388602237111
  0
HATCH
  5
7FED
330
2
100
AcDbEntity
  8
Hatch
100
AcDbHatch
 10
0.0
 20
0.0
 30
0.0
210
0.0
220
0.0
230
1.0
  2
SOLID
 70
     1
 71
     0
 91
        2
 92
        5
 93
        8
 72
     1
 10
3791.544770891652
 20
43265.00464558
 11
3539.544770891652
 21
43265.00464558002
 72
     1
 10
3539.544770891652
 20
43265.00464558002
 11
3539.544770891652
 21
43225.00464558002
 72
     1
 10
3539.544770891652
 20
43225.00464558002
 11
3489.544770891653
 21
43225.00464558002
 72
     1
 10
3489.544770891653
 20
43225.00464558002
 11
3489.544770891652
 21
43265.00464558002
 72
     1
 10
3489.544770891652
 20
43265.00464558002
 11
3237.544770891651
 21
43265.00464558003
 72
     1
 10
3237.544770891651
 20
43265.00464558003
 11
3237.544770891651
 21
42907.17567493544
 72
     4
 94
        3
 73
     0
 74
     0
 95
       11
 96
        7
 40
225.1147009412812
 40
225.1147009412812
 40
225.1147009412812
 40
225.1147009412812
 40
338.867601057876
 40
525.8961254308618
 40
673.2516949281792
 40
785.1342897234069
 40
785.1342897234069
 40
785.1342897234069
 40
785.1342897234069
 10
3237.544770891643
 20
42907.17567493544
 10
3274.625585996083
 20
42899.46719179841
 10
3372.159223639159
 20
42875.32160798153
 10
3518.521874496553
 20
42838.65858010702
 10
3667.582014721185
 20
42848.60778049621
 10
3754.622467744344
 20
42854.60857326674
 10
3791.544770891652
 20
42859.78343898672
 72
     1
 10
3791.544770891652
 20
42859.78343898672
 11
3791.544770891652
 21
43265.00464558
 97
        0
 92
        5
 93
        8
 72
     4
 94
        3
 73
     0
 74
     0
 95
       11
 96
        7
 40
225.1147009412812
 40
225.1147009412812
 40
225.1147009412812
 40
225.1147009412812
 40
336.9972957365089
 40
484.3528652338262
 40
671.381389606812
 40
785.1342897234069
 40
785.1342897234069
 40
785.1342897234069
 40
785.1342897234069
 10
3791.544770891652
 20
42809.78343898672
 10
3754.622467744344
 20
42804.60857326674
 10
3667.582014721185
 20
42798.60778049621
 10
3518.521874496553
 20
42788.65858010702
 10
3372.159223639159
 20
42825.32160798154
 10
3274.625585996083
 20
42849.4671917984
 10
3237.544770891642
 20
42857.17567493543
 72
     1
 10
3237.544770891651
 20
42857.17567493543
 11
3237.544770891651
 21
42502.13707901225
 72
     1
 10
3237.544770891651
 20
42502.13707901225
 11
3489.544770891652
 21
42502.13707901226
 72
     1
 10
3489.544770891652
 20
42502.13707901226
 11
3489.544770891653
 21
42542.13707901226
 72
     1
 10
3489.544770891653
 20
42542.13707901226
 11
3539.544770891653
 21
42542.13707901226
 72
     1
 10
3539.544770891653
 20
42542.13707901226
 11
3539.544770891652
 21
42502.13707901226
 72
     1
 10
3539.544770891652
 20
42502.13707901226
 11
3791.544770891652
 21
42502.13707901227
 72
     1
 10
3791.544770891652
 20
42502.13707901227
 11
3791.544770891652
 21
42809.78343898673
 97
        0
 75
     0
 76
     1
 47
1.83747804483284
 98
        2
 10
3512.879618518928
 20
43141.69685323327
 10
3634.208105477731
 20
42663.95255995637
450
        1
451
        0
460
3.141592653589793
461
0.0
452
        1
462
1.0
453
        2
463
0.0
 63
     8
421
  8421504
463
1.0
 63
     7
421
 16777215
470
CYLINDER
1001
ACAD
1010
3237.544770891642
1020
42502.13707901225
1030
0.0
  0
HATCH
  5
83E7
330
2
100
AcDbEntity
  8
Hatch
100
AcDbHatch
 10
0.0
 20
0.0
 30
0.0
210
0.0
220
0.0
230
1.0
  2
SOLID
 70
     1
 71
     0
 91
        2
 92
        5
 93
        4
 72
     1
 10
3191.544770891651
 20
43265.00464558004
 11
3014.318165777161
 21
43265.00464558006
 72
     1
 10
3014.318165777161
 20
43265.00464558006
 11
3014.318165777161
 21
42933.5708622962
 72
     4
 94
        3
 73
     0
 74
     0
 95
        9
 96
        5
 40
0.0
 40
0.0
 40
0.0
 40
0.0
 40
157.424032083686
 40
178.1992220223929
 40
178.1992220223929
 40
178.1992220223929
 40
178.1992220223929
 10
3014.318165777161
 20
42933.57086229619
 10
3066.808039645913
 20
42930.18436893841
 10
3126.224982304915
 20
42926.3509613338
 10
3184.734084574439
 20
42917.04320176762
 10
3191.544770891651
 20
42915.8919259214
 72
     1
 10
3191.544770891651
 20
42915.89192592141
 11
3191.544770891651
 21
43265.00464558004
 97
        0
 92
        5
 93
        4
 72
     4
 94
        3
 73
     0
 74
     0
 95
        9
 96
        5
 40
0.0
 40
0.0
 40
0.0
 40
0.0
 40
20.77518993863626
 40
178.1992220223222
 40
178.1992220223222
 40
178.1992220223222
 40
178.1992220223222
 10
3191.544770891582
 20
42865.8919259214
 10
3184.734084574392
 20
42867.04320176762
 10
3126.224982304892
 20
42876.3509613338
 10
3066.808039645913
 20
42880.18436893842
 10
3014.318165777161
 20
42883.57086229619
 72
     1
 10
3014.318165777161
 20
42883.57086229619
 11
3014.318165777161
 21
42502.13707901224
 72
     1
 10
3014.318165777161
 20
42502.13707901224
 11
3191.544770891651
 21
42502.13707901225
 72
     1
 10
3191.544770891651
 20
42502.13707901225
 11
3191.544770891651
 21
42865.89192592139
 97
        0
 75
     0
 76
     1
 47
1.83747804483284
 98
        2
 10
3139.70261582503
 20
43005.72347648479
 10
3110.289651695406
 20
42777.8762003848
450
        1
451
        0
460
3.141592653589793
461
0.0
452
        1
462
1.0
453
        2
463
0.0
 63
     8
421
  8421504
463
1.0
 63
     7
421
 16777215
470
LINEAR
1001
ACAD
1010
3014.318165777161
1020
42502.13707901224
1030
0.0
  0
HATCH
  5
87E1
330
2
100
AcDbEntity
  8
Hatch
100
AcDbHatch
 10
0.0
 20
0.0
 30
0.0
210
0.0
220
0.0
230
1.0
  2
SOLID
 70
     1
 71
     0
 91
        2
 92
        5
 93
        4
 72
     1
 10
4014.771376006144
 20
43265.00464557999
 11
3837.544770891652
 21
43265.00464558
 72
     1
 10
3837.544770891652
 20
43265.00464558
 11
3837.544770891653
 21
42867.83271155385
 72
     4
 94
        3
 73
     0
 74
     0
 95
        9
 96
        5
 40
831.9932296021573
 40
831.9932296021573
 40
831.9932296021573
 40
831.9932296021573
 40
855.3945334481571
 40
1021.363181745015
 40
1021.363181745015
 40
1021.363181745015
 40
1021.363181745015
 10
3837.544770891652
 20
42867.83271155385
 10
3845.128133478188
 20
42869.46131488142
 10
3906.15951459579
 20
42883.93275520848
 10
3964.041835773321
 20
42910.38630107155
 10
4014.771376006144
 20
42933.57086229614
 72
     1
 10
4014.771376006144
 20
42933.57086229613
 11
4014.771376006144
 21
43265.00464557999
 97
        0
 92
        5
 93
        4
 72
     4
 94
        3
 73
     0
 74
     0
 95
        9
 96
        5
 40
831.9932296021573
 40
831.9932296021573
 40
831.9932296021573
 40
831.9932296021573
 40
997.961877899015
 40
1021.363181745015
 40
1021.363181745015
 40
1021.363181745015
 40
1021.363181745015
 10
4014.771376006144
 20
42883.57086229614
 10
3964.041835773321
 20
42860.38630107156
 10
3906.15951459579
 20
42833.93275520846
 10
3845.128133478188
 20
42819.46131488142
 10
3837.544770891652
 20
42817.83271155385
 72
     1
 10
3837.544770891653
 20
42817.83271155385
 11
3837.544770891653
 21
42502.13707901228
 72
     1
 10
3837.544770891653
 20
42502.13707901228
 11
4014.771376006143
 21
42502.13707901229
 72
     1
 10
4014.771376006143
 20
42502.13707901229
 11
4014.771376006144
 21
42883.57086229614
 97
        0
 75
     0
 76
     1
 47
1.83747804483284
 98
        2
 10
3875.026762370791
 20
43068.19773137363
 10
3941.205933466827
 20
42755.82646406475
450
        1
451
        0
460
0.0
461
0.0
452
        1
462
1.0
453
        2
463
0.0
 63
     8
421
  8421504
463
1.0
 63
     7
421
 16777215
470
LINEAR
1001
ACAD
1010
3837.544770891652
1020
42502.13707901228
1030
0.0
  0
LINE
  5
8804
102
{ACAD_REACTORS
330
8A00
330
8A1D
102
}
330
2
100
AcDbEntity
  8
Text
  6
CENTER
 62
     1
 48
50.0
100
AcDbLine
 10
3514.544770891652
 20
42457.13707901227
 30
0.0
 11
3514.544770891652
 21
42954.82342406725
 31
0.0
  0
LINE
  5
880E
102
{ACAD_REACTORS
330
8A1D
102
}
330
2
100
AcDbEntity
  8
Text
  6
DASHED
 62
     1
 48
50.0
100
AcDbLine
 10
3564.544770891652
 20
42502.13707901227
 30
0.0
 11
3564.544770891652
 21
42794.91919586479
 31
0.0
  0
LINE
  5
880F
102
{ACAD_REACTORS
330
8A00
102
}
330
2
100
AcDbEntity
  8
Text
  6
DASHED
 62
     1
 48
50.0
100
AcDbLine
 10
3464.544770891652
 20
42502.13707901226
 30
0.0
 11
3464.544770891652
 21
42804.99349055175
 31
0.0
  0
LINE
  5
8810
330
2
100
AcDbEntity
  8
Text
  6
DASHED
 62
     1
 48
50.0
100
AcDbLine
 10
3464.544770891652
 20
42854.99349055176
 30
0.0
 11
3464.544770891652
 21
42954.82342406725
 31
0.0
  0
LINE
  5
8811
330
2
100
AcDbEntity
  8
Text
  6
DASHED
 62
     1
 48
50.0
100
AcDbLine
 10
3564.544770891652
 20
42844.91919586479
 30
0.0
 11
3564.544770891652
 21
42954.82342406725
 31
0.0
  0
LINE
  5
8BD0
330
2
100
AcDbEntity
  8
Text
  6
DASHED
 62
     1
 48
50.0
100
AcDbLine
 10
3564.544770891652
 20
43041.23861244621
 30
0.0
 11
3564.544770891652
 21
43265.00464558002
 31
0.0
  0
LINE
  5
8CDC
330
2
100
AcDbEntity
  8
Text
  6
DASHED
 62
     1
 48
50.0
100
AcDbLine
 10
3464.544770891652
 20
43041.23861244621
 30
0.0
 11
3464.544770891651
 21
43265.00464558002
 31
0.0
  0
LINE
  5
8DF0
330
2
100
AcDbEntity
  8
Text
  6
CENTER
 62
     1
 48
50.0
100
AcDbLine
 10
3514.544770891652
 20
43041.23861244621
 30
0.0
 11
3514.544770891652
 21
43348.43886916011
 31
0.0
  0
SPLINE
  5
8F0B
330
2
100
AcDbEntity
  8
Hatch
 62
    21
100
AcDbSpline
210
0.0
220
0.0
230
1.0
 70
     8
 71
     3
 72
    18
 73
    14
 74
     0
 42
0.000000001
 43
0.0000000001
 40
15.5436909013159
 40
15.5436909013159
 40
15.5436909013159
 40
15.5436909013159
 40
45.47344703091142
 40
144.9185237052116
 40
255.6508159603699
 40
369.7160236048991
 40
464.6672689481615
 40
553.4985333594053
 40
665.5156480733433
 40
773.5866701828373
 40
862.4179296964689
 40
964.68401454414
 40
1019.987205962068
 40
1019.987205962068
 40
1019.987205962068
 40
1019.987205962068
 10
3014.318165777166
 20
43297.63580246048
 30
0.0
 10
3024.189181355348
 20
43299.36323326245
 30
0.0
 10
3066.882019426906
 20
43305.40542770289
 30
0.0
 10
3146.684483385528
 20
43283.17908789709
 30
0.0
 10
3254.883437635493
 20
43308.09725535297
 30
0.0
 10
3360.629992236851
 20
43271.09873346461
 30
0.0
 10
3458.380395659712
 20
43305.10256216852
 30
0.0
 10
3557.251262983296
 20
43287.83990406328
 30
0.0
 10
3659.975093382499
 20
43303.52790364592
 30
0.0
 10
3762.945195132961
 20
43291.55526448211
 30
0.0
 10
3862.74017690264
 20
43306.40263589978
 30
0.0
 10
3944.109643999441
 20
43283.86125961518
 30
0.0
 10
3996.409533864638
 20
43290.27524595036
 30
0.0
 10
4014.771376006143
 20
43292.9803423947
 30
0.0
  0
SPLINE
  5
8F0E
330
2
100
AcDbEntity
  8
Hatch
 62
    21
100
AcDbSpline
210
0.0
220
0.0
230
1.0
 70
     8
 71
     3
 72
    19
 73
    15
 74
     0
 42
0.000000001
 43
0.0000000001
 40
10.56473970920771
 40
10.56473970920771
 40
10.56473970920771
 40
10.56473970920771
 40
38.36989372034386
 40
115.9261666301925
 40
204.7574261438278
 40
282.0254743339863
 40
385.2098379159739
 40
473.1328880186275
 40
551.6013545155801
 40
677.6550784413687
 40
792.3860771997238
 40
862.4212069098177
 40
958.0241655907652
 40
1014.369335457586
 40
1014.369335457586
 40
1014.369335457586
 40
1014.369335457586
 10
3014.31816577716
 20
43284.98579822257
 30
0.0
 10
3023.299683261324
 20
43287.59751038201
 30
0.0
 10
3057.416376701147
 20
43296.20820681739
 30
0.0
 10
3122.408519451635
 20
43279.46390962762
 30
0.0
 10
3203.436856166463
 20
43277.0592198972
 30
0.0
 10
3293.120714684179
 20
43287.97442448219
 30
0.0
 10
3382.404881887098
 20
43268.61663496059
 30
0.0
 10
3471.560896680802
 20
43287.72266763895
 30
0.0
 10
3569.203061031732
 20
43283.83263807667
 30
0.0
 10
3675.552923608659
 20
43293.39244257119
 30
0.0
 10
3779.162713586039
 20
43271.24428096202
 30
0.0
 10
3871.634460084822
 20
43295.65855468024
 30
0.0
 10
3945.327518655549
 20
43276.80676191872
 30
0.0
 10
3995.982192753828
 20
43278.72278003542
 30
0.0
 10
4014.771376006143
 20
43279.81819968034
 30
0.0
  0
SPLINE
  5
8F11
330
2
100
AcDbEntity
  8
Hatch
 62
    21
100
AcDbSpline
210
0.0
220
0.0
230
1.0
 70
     8
 71
     3
 72
     9
 73
     5
 74
     0
 42
0.000000001
 43
0.0000000001
 40
15.5436909013159
 40
15.5436909013159
 40
15.5436909013159
 40
15.5436909013159
 40
45.47344703091142
 40
118.0593114207997
 40
118.0593114207997
 40
118.0593114207997
 40
118.0593114207997
 10
3014.318165777166
 20
43268.06742189539
 30
0.0
 10
3024.189181355348
 20
43269.79485269736
 30
0.0
 10
3058.018657241726
 20
43274.58264100934
 30
0.0
 10
3092.040535562033
 20
43268.05704958144
 30
0.0
 10
3116.180110830814
 20
43265.00464558005
 30
0.0
  0
SPLINE
  5
8F12
330
2
100
AcDbEntity
  8
Hatch
 62
    21
100
AcDbSpline
210
0.0
220
0.0
230
1.0
 70
     8
 71
     3
 72
    13
 73
     9
 74
     0
 42
0.000000001
 43
0.0000000001
 40
101.5926370584878
 40
101.5926370584878
 40
101.5926370584878
 40
101.5926370584878
 40
115.9261666301925
 40
204.7574261438278
 40
282.0254743339863
 40
385.2098379159739
 40
473.1328880186275
 40
494.8160727722004
 40
494.8160727722004
 40
494.8160727722004
 40
494.8160727722004
 10
3104.205931110761
 20
43310.00464558
 30
0.0
 10
3108.989700608963
 20
43309.16826473825
 30
0.0
 10
3143.433417475052
 20
43303.26600279951
 30
0.0
 10
3203.436856166463
 20
43301.48527202481
 30
0.0
 10
3293.120714684179
 20
43312.4004766098
 30
0.0
 10
3382.404881887098
 20
43293.04268708819
 30
0.0
 10
3452.780472349935
 20
43308.12409616926
 30
0.0
 10
3489.257995445983
 20
43309.81482582174
 30
0.0
 10
3496.480239444518
 20
43310.00464558001
 30
0.0
  0
SPLINE
  5
8F13
330
2
100
AcDbEntity
  8
Hatch
 62
    21
100
AcDbSpline
210
0.0
220
0.0
230
1.0
 70
     8
 71
     3
 72
     9
 73
     5
 74
     0
 42
0.000000001
 43
0.0000000001
 40
694.5573753138781
 40
694.5573753138781
 40
694.5573753138781
 40
694.5573753138781
 40
792.3860771997238
 40
836.3522418518499
 40
836.3522418518499
 40
836.3522418518499
 40
836.3522418518499
 10
3696.23684363247
 20
43310.00464558002
 30
0.0
 10
3728.835215302876
 20
43306.67225532634
 30
0.0
 10
3776.055932329228
 20
43298.62217509178
 30
0.0
 10
3822.893387341352
 20
43307.80184952027
 30
0.0
 10
3837.418287893632
 20
43310.00464558
 30
0.0
  0
SPLINE
  5
8F14
330
2
100
AcDbEntity
  8
Hatch
 62
    21
100
AcDbSpline
210
0.0
220
0.0
230
1.0
 70
     8
 71
     3
 72
     9
 73
     5
 74
     0
 42
0.000000001
 43
0.0000000001
 40
907.3512774494417
 40
907.3512774494417
 40
907.3512774494417
 40
907.3512774494417
 40
958.0241655907652
 40
1014.369335457585
 40
1014.369335457585
 40
1014.369335457585
 40
1014.369335457585
 10
3907.920037465539
 20
43310.00464558003
 30
0.0
 10
3924.734311909591
 20
43307.80139026594
 30
0.0
 10
3960.305775394539
 20
43301.79936810633
 30
0.0
 10
3995.982192753828
 20
43303.14883216304
 30
0.0
 10
4014.771376006143
 20
43304.24425180794
 30
0.0
  0
SPLINE
  5
8F15
330
2
100
AcDbEntity
  8
Hatch
 62
    21
100
AcDbSpline
210
0.0
220
0.0
230
1.0
 70
     8
 71
     3
 72
     9
 73
     5
 74
     0
 42
0.000000001
 43
0.0000000001
 40
195.6799748787335
 40
195.6799748787335
 40
195.6799748787335
 40
195.6799748787335
 40
255.6508159603699
 40
281.1569298072894
 40
281.1569298072894
 40
281.1569298072894
 40
281.1569298072894
 10
3193.731603129291
 20
43265.00464558004
 30
0.0
 10
3213.712849254402
 20
43266.84795075571
 30
0.0
 10
3242.17878331618
 20
43269.70015512068
 30
0.0
 10
3270.54786545955
 20
43266.29377180927
 30
0.0
 10
3279.004674840841
 20
43265.00464558003
 30
0.0
  0
SPLINE
  5
8F16
330
2
100
AcDbEntity
  8
Hatch
 62
    21
100
AcDbSpline
210
0.0
220
0.0
230
1.0
 70
     8
 71
     3
 72
    13
 73
     9
 74
     0
 42
0.000000001
 43
0.0000000001
 40
442.7966211115704
 40
442.7966211115704
 40
442.7966211115704
 40
442.7966211115704
 40
464.6672689481615
 40
553.4985333594053
 40
665.5156480733433
 40
773.5866701828373
 40
862.4179296964689
 40
908.0687766550942
 40
908.0687766550942
 40
908.0687766550942
 40
908.0687766550942
 10
3438.989991517775
 20
43265.00464558003
 30
0.0
 10
3446.209599811704
 20
43266.2255275865
 30
0.0
 10
3482.807546549422
 20
43271.26924931641
 30
0.0
 10
3557.251262983296
 20
43258.27152349819
 30
0.0
 10
3659.975093382499
 20
43273.95952308083
 30
0.0
 10
3762.945195132961
 20
43261.98688391702
 30
0.0
 10
3843.854768997808
 20
43274.02450818543
 30
0.0
 10
3888.398290443845
 20
43267.34391742077
 30
0.0
 10
3903.508651956386
 20
43265.0046455799
 30
0.0
  0
SPLINE
  5
8F17
330
2
100
AcDbEntity
  8
Hatch
 62
    21
100
AcDbSpline
210
0.0
220
0.0
230
1.0
 70
     8
 71
     3
 72
    18
 73
    14
 74
     0
 42
0.000000001
 43
0.0000000001
 40
15.5436909013159
 40
15.5436909013159
 40
15.5436909013159
 40
15.5436909013159
 40
45.47344703091142
 40
144.9185237052116
 40
255.6508159603699
 40
369.7160236048991
 40
464.6672689481615
 40
553.4985333594053
 40
665.5156480733433
 40
773.5866701828373
 40
862.4179296964689
 40
964.68401454414
 40
1019.987205962068
 40
1019.987205962068
 40
1019.987205962068
 40
1019.987205962068
 10
3014.318165777166
 20
42469.5059221318
 30
0.0
 10
3024.189181355348
 20
42467.77849132984
 30
0.0
 10
3066.882019426906
 20
42461.7362968894
 30
0.0
 10
3146.684483385528
 20
42483.9626366952
 30
0.0
 10
3254.883437635493
 20
42459.04446923931
 30
0.0
 10
3360.629992236851
 20
42496.04299112767
 30
0.0
 10
3458.380395659712
 20
42462.03916242377
 30
0.0
 10
3557.251262983296
 20
42479.301820529
 30
0.0
 10
3659.975093382499
 20
42463.61382094637
 30
0.0
 10
3762.945195132961
 20
42475.58646011017
 30
0.0
 10
3862.74017690264
 20
42460.73908869251
 30
0.0
 10
3944.109643999441
 20
42483.28046497711
 30
0.0
 10
3996.409533864638
 20
42476.86647864192
 30
0.0
 10
4014.771376006143
 20
42474.16138219759
 30
0.0
  0
SPLINE
  5
8F18
330
2
100
AcDbEntity
  8
Hatch
 62
    21
100
AcDbSpline
210
0.0
220
0.0
230
1.0
 70
     8
 71
     3
 72
    19
 73
    15
 74
     0
 42
0.000000001
 43
0.0000000001
 40
10.56473970920771
 40
10.56473970920771
 40
10.56473970920771
 40
10.56473970920771
 40
38.36989372034386
 40
115.9261666301925
 40
204.7574261438278
 40
282.0254743339863
 40
385.2098379159739
 40
473.1328880186275
 40
551.6013545155801
 40
677.6550784413687
 40
792.3860771997238
 40
862.4212069098177
 40
958.0241655907652
 40
1014.369335457586
 40
1014.369335457586
 40
1014.369335457586
 40
1014.369335457586
 10
3014.31816577716
 20
42482.15592636972
 30
0.0
 10
3023.299683261324
 20
42479.54421421028
 30
0.0
 10
3057.416376701147
 20
42470.9335177749
 30
0.0
 10
3122.408519451635
 20
42487.67781496467
 30
0.0
 10
3203.436856166463
 20
42490.08250469509
 30
0.0
 10
3293.120714684179
 20
42479.16730011009
 30
0.0
 10
3382.404881887098
 20
42498.5250896317
 30
0.0
 10
3471.560896680802
 20
42479.41905695333
 30
0.0
 10
3569.203061031732
 20
42483.30908651562
 30
0.0
 10
3675.552923608659
 20
42473.7492820211
 30
0.0
 10
3779.162713586039
 20
42495.89744363026
 30
0.0
 10
3871.634460084822
 20
42471.48316991205
 30
0.0
 10
3945.327518655549
 20
42490.33496267357
 30
0.0
 10
3995.982192753828
 20
42488.41894455686
 30
0.0
 10
4014.771376006143
 20
42487.32352491195
 30
0.0
  0
SPLINE
  5
8F19
330
2
100
AcDbEntity
  8
Hatch
 62
    21
100
AcDbSpline
210
0.0
220
0.0
230
1.0
 70
     8
 71
     3
 72
    13
 73
     9
 74
     0
 42
0.000000001
 43
0.0000000001
 40
101.5926370584878
 40
101.5926370584878
 40
101.5926370584878
 40
101.5926370584878
 40
115.9261666301925
 40
204.7574261438278
 40
282.0254743339863
 40
385.2098379159739
 40
473.1328880186275
 40
494.8160727722004
 40
494.8160727722004
 40
494.8160727722004
 40
494.8160727722004
 10
3104.205931110761
 20
42457.13707901229
 30
0.0
 10
3108.989700608963
 20
42457.97345985404
 30
0.0
 10
3143.433417475052
 20
42463.87572179277
 30
0.0
 10
3203.436856166463
 20
42465.65645256748
 30
0.0
 10
3293.120714684179
 20
42454.74124798249
 30
0.0
 10
3382.404881887098
 20
42474.09903750409
 30
0.0
 10
3452.780472349935
 20
42459.01762842303
 30
0.0
 10
3489.257995445983
 20
42457.32689877054
 30
0.0
 10
3496.480239444518
 20
42457.13707901228
 30
0.0
  0
SPLINE
  5
8F1A
330
2
100
AcDbEntity
  8
Hatch
 62
    21
100
AcDbSpline
210
0.0
220
0.0
230
1.0
 70
     8
 71
     3
 72
     9
 73
     5
 74
     0
 42
0.000000001
 43
0.0000000001
 40
694.5573753138781
 40
694.5573753138781
 40
694.5573753138781
 40
694.5573753138781
 40
792.3860771997238
 40
836.3522418518499
 40
836.3522418518499
 40
836.3522418518499
 40
836.3522418518499
 10
3696.23684363247
 20
42457.13707901227
 30
0.0
 10
3728.835215302876
 20
42460.46946926595
 30
0.0
 10
3776.055932329228
 20
42468.5195495005
 30
0.0
 10
3822.893387341352
 20
42459.33987507201
 30
0.0
 10
3837.418287893632
 20
42457.13707901229
 30
0.0
  0
SPLINE
  5
8F1B
330
2
100
AcDbEntity
  8
Hatch
 62
    21
100
AcDbSpline
210
0.0
220
0.0
230
1.0
 70
     8
 71
     3
 72
     9
 73
     5
 74
     0
 42
0.000000001
 43
0.0000000001
 40
907.3512774494417
 40
907.3512774494417
 40
907.3512774494417
 40
907.3512774494417
 40
958.0241655907652
 40
1014.369335457585
 40
1014.369335457585
 40
1014.369335457585
 40
1014.369335457585
 10
3907.920037465539
 20
42457.13707901225
 30
0.0
 10
3924.734311909592
 20
42459.34033432635
 30
0.0
 10
3960.30577539454
 20
42465.34235648595
 30
0.0
 10
3995.982192753828
 20
42463.99289242926
 30
0.0
 10
4014.771376006143
 20
42462.89747278436
 30
0.0
  0
SPLINE
  5
8F1C
330
2
100
AcDbEntity
  8
Hatch
 62
    21
100
AcDbSpline
210
0.0
220
0.0
230
1.0
 70
     8
 71
     3
 72
     9
 73
     5
 74
     0
 42
0.000000001
 43
0.0000000001
 40
15.5436909013159
 40
15.5436909013159
 40
15.5436909013159
 40
15.5436909013159
 40
45.47344703091142
 40
118.0593114207997
 40
118.0593114207997
 40
118.0593114207997
 40
118.0593114207997
 10
3014.318165777166
 20
42499.0743026969
 30
0.0
 10
3024.189181355348
 20
42497.34687189492
 30
0.0
 10
3058.018657241726
 20
42492.55908358295
 30
0.0
 10
3092.040535562033
 20
42499.08467501085
 30
0.0
 10
3116.180110830814
 20
42502.13707901224
 30
0.0
  0
SPLINE
  5
8F1D
330
2
100
AcDbEntity
  8
Hatch
 62
    21
100
AcDbSpline
210
0.0
220
0.0
230
1.0
 70
     8
 71
     3
 72
     9
 73
     5
 74
     0
 42
0.000000001
 43
0.0000000001
 40
195.6799748787335
 40
195.6799748787335
 40
195.6799748787335
 40
195.6799748787335
 40
255.6508159603699
 40
281.1569298072894
 40
281.1569298072894
 40
281.1569298072894
 40
281.1569298072894
 10
3193.731603129291
 20
42502.13707901224
 30
0.0
 10
3213.712849254402
 20
42500.29377383658
 30
0.0
 10
3242.17878331618
 20
42497.44156947161
 30
0.0
 10
3270.54786545955
 20
42500.84795278302
 30
0.0
 10
3279.004674840841
 20
42502.13707901226
 30
0.0
  0
SPLINE
  5
8F1E
330
2
100
AcDbEntity
  8
Hatch
 62
    21
100
AcDbSpline
210
0.0
220
0.0
230
1.0
 70
     8
 71
     3
 72
    13
 73
     9
 74
     0
 42
0.000000001
 43
0.0000000001
 40
442.7966211115704
 40
442.7966211115704
 40
442.7966211115704
 40
442.7966211115704
 40
464.6672689481615
 40
553.4985333594053
 40
665.5156480733433
 40
773.5866701828373
 40
862.4179296964689
 40
908.0687766550942
 40
908.0687766550942
 40
908.0687766550942
 40
908.0687766550942
 10
3438.989991517775
 20
42502.13707901225
 30
0.0
 10
3446.209599811704
 20
42500.91619700578
 30
0.0
 10
3482.807546549422
 20
42495.87247527588
 30
0.0
 10
3557.251262983296
 20
42508.87020109409
 30
0.0
 10
3659.975093382499
 20
42493.18220151145
 30
0.0
 10
3762.945195132961
 20
42505.15484067527
 30
0.0
 10
3843.854768997808
 20
42493.11721640685
 30
0.0
 10
3888.398290443845
 20
42499.79780717151
 30
0.0
 10
3903.508651956386
 20
42502.13707901239
 30
0.0
  0
SPLINE
  5
8F1F
330
2
100
AcDbEntity
  8
Hatch
 62
    21
100
AcDbSpline
210
0.0
220
0.0
230
1.0
 70
     8
 71
     3
 72
    11
 73
     7
 74
     0
 42
0.000000001
 43
0.0000000001
 40
102.6262987263074
 40
102.6262987263074
 40
102.6262987263074
 40
102.6262987263074
 40
144.9185237052116
 40
255.6508159603699
 40
369.7160236048991
 40
462.6019732795201
 40
462.6019732795201
 40
462.6019732795201
 40
462.6019732795201
 10
3223.203200110777
 20
42502.13707901224
 30
0.0
 10
3221.226906769655
 20
42516.18830569541
 30
0.0
 10
3214.111431973356
 20
42567.10340514988
 30
0.0
 10
3234.63738066459
 20
42656.23059266524
 30
0.0
 10
3197.877836686665
 20
42761.29411753016
 30
0.0
 10
3221.034374610491
 20
42829.21842223187
 30
0.0
 10
3223.7110102784
 20
42859.9809534387
 30
0.0
  0
SPLINE
  5
8F20
330
2
100
AcDbEntity
  8
Hatch
 62
    21
100
AcDbSpline
210
0.0
220
0.0
230
1.0
 70
     8
 71
     3
 72
    12
 73
     8
 74
     0
 42
0.000000001
 43
0.0000000001
 40
98.18050051820977
 40
98.18050051820977
 40
98.18050051820977
 40
98.18050051820977
 40
115.9261666301925
 40
204.7574261438278
 40
282.0254743339863
 40
385.2098379159739
 40
459.5703783347272
 40
459.5703783347272
 40
459.5703783347272
 40
459.5703783347272
 10
3212.717751968221
 20
42502.13707901224
 30
0.0
 10
3211.678110976977
 20
42508.05828096167
 30
0.0
 10
3205.413751098515
 20
42543.64585706834
 30
0.0
 10
3203.599345208812
 20
42604.78401119621
 30
0.0
 10
3214.514549793803
 20
42694.46786971394
 30
0.0
 10
3196.135017397538
 20
42779.24000972238
 30
0.0
 10
3206.916558321807
 20
42837.98355433298
 30
0.0
 10
3209.70458234987
 20
42862.66685418323
 30
0.0
  0
SPLINE
  5
8F21
330
2
100
AcDbEntity
  8
Hatch
 62
    21
100
AcDbSpline
210
0.0
220
0.0
230
1.0
 70
     8
 71
     3
 72
    12
 73
     8
 74
     0
 42
0.000000001
 43
0.0000000001
 40
101.5926370584878
 40
101.5926370584878
 40
101.5926370584878
 40
101.5926370584878
 40
115.9261666301925
 40
204.7574261438278
 40
282.0254743339863
 40
385.2098379159739
 40
454.8765231707025
 40
454.8765231707025
 40
454.8765231707025
 40
454.8765231707025
 10
3236.544770891615
 20
42505.55308614051
 30
0.0
 10
3235.708390049866
 20
42510.33685563871
 30
0.0
 10
3229.806128111127
 20
42544.78057250481
 30
0.0
 10
3228.02539733642
 20
42604.78401119621
 30
0.0
 10
3238.940601921412
 20
42694.46786971394
 30
0.0
 10
3220.899634979957
 20
42777.67844017215
 30
0.0
 10
3230.789021594021
 20
42834.87725602978
 30
0.0
 10
3233.583494367002
 20
42857.99352876138
 30
0.0
  0
SPLINE
  5
8F22
330
2
100
AcDbEntity
  8
Hatch
 62
    21
100
AcDbSpline
210
0.0
220
0.0
230
1.0
 70
     8
 71
     3
 72
     9
 73
     5
 74
     0
 42
0.000000001
 43
0.0000000001
 40
694.5573753138781
 40
694.5573753138781
 40
694.5573753138781
 40
694.5573753138781
 40
792.3860771997238
 40
836.3522418518499
 40
836.3522418518499
 40
836.3522418518499
 40
836.3522418518499
 10
3236.544770891629
 20
43097.58399866222
 30
0.0
 10
3233.21238063795
 20
43130.18237033262
 30
0.0
 10
3225.162300403394
 20
43177.40308735898
 30
0.0
 10
3234.341974831889
 20
43224.24054237111
 30
0.0
 10
3236.544770891615
 20
43238.76544292338
 30
0.0
  0
SPLINE
  5
8F25
330
2
100
AcDbEntity
  8
Hatch
 62
    21
100
AcDbSpline
210
0.0
220
0.0
230
1.0
 70
     8
 71
     3
 72
     9
 73
     5
 74
     0
 42
0.000000001
 43
0.0000000001
 40
195.6799748787335
 40
195.6799748787335
 40
195.6799748787335
 40
195.6799748787335
 40
255.6508159603699
 40
281.1569298072894
 40
281.1569298072894
 40
281.1569298072894
 40
281.1569298072894
 10
3191.544770891659
 20
42595.07875815905
 30
0.0
 10
3193.388076067324
 20
42615.06000428416
 30
0.0
 10
3196.240280432289
 20
42643.52593834593
 30
0.0
 10
3192.833897120884
 20
42671.8950204893
 30
0.0
 10
3191.544770891644
 20
42680.35182987059
 30
0.0
  0
SPLINE
  5
8F26
330
2
100
AcDbEntity
  8
Hatch
 62
    21
100
AcDbSpline
210
0.0
220
0.0
230
1.0
 70
     8
 71
     3
 72
     9
 73
     5
 74
     0
 42
0.000000001
 43
0.0000000001
 40
442.7966211115704
 40
442.7966211115704
 40
442.7966211115704
 40
442.7966211115704
 40
464.6672689481615
 40
468.0359271959986
 40
468.0359271959986
 40
468.0359271959986
 40
468.0359271959986
 10
3191.544770891651
 20
42840.33714654753
 30
0.0
 10
3192.765652898121
 20
42847.55675484146
 30
0.0
 10
3193.915588196986
 20
42855.90084539074
 30
0.0
 10
3194.467523361741
 20
42864.26594190736
 30
0.0
 10
3194.531174552467
 20
42865.38277707102
 30
0.0
  0
SPLINE
  5
8F27
330
2
100
AcDbEntity
  8
Hatch
 62
    21
100
AcDbSpline
210
0.0
220
0.0
230
1.0
 70
     8
 71
     3
 72
    12
 73
     8
 74
     0
 42
0.000000001
 43
0.0000000001
 40
512.9041664339073
 40
512.9041664339073
 40
512.9041664339073
 40
512.9041664339073
 40
553.4985333594053
 40
665.5156480733433
 40
773.5866701828373
 40
862.4179296964689
 40
867.9782321588007
 40
867.9782321588007
 40
867.9782321588007
 40
867.9782321588007
 10
3222.819975192281
 20
42910.156615611
 30
0.0
 10
3221.735659283286
 20
42923.69130624631
 30
0.0
 10
3216.829666479591
 20
42974.63845582391
 30
0.0
 10
3230.068028957536
 20
43061.32224841225
 30
0.0
 10
3218.095389793726
 20
43164.29235016271
 30
0.0
 10
3228.143367858915
 20
43231.82873486207
 30
0.0
 10
3226.248695051346
 20
43263.15954212466
 30
0.0
 10
3226.116907561622
 20
43265.00464558003
 30
0.0
  0
SPLINE
  5
8F28
330
2
100
AcDbEntity
  8
Hatch
 62
    21
100
AcDbSpline
210
0.0
220
0.0
230
1.0
 70
     8
 71
     3
 72
    12
 73
     8
 74
     0
 42
0.000000001
 43
0.0000000001
 40
509.1680648719659
 40
509.1680648719659
 40
509.1680648719659
 40
509.1680648719659
 40
551.6013545155801
 40
677.6550784413687
 40
792.3860771997238
 40
862.4212069098177
 40
862.81634072912
 40
862.81634072912
 40
862.81634072912
 40
862.81634072912
 10
3212.332545249229
 20
42912.17548551224
 30
0.0
 10
3212.409176520973
 20
42926.32211644257
 30
0.0
 10
3211.451810543701
 20
42982.5542812867
 30
0.0
 10
3219.9325678828
 20
43076.90007863841
 30
0.0
 10
3197.784406273637
 20
43180.50986861579
 30
0.0
 10
3213.908073063957
 20
43241.58002967297
 30
0.0
 10
3214.890026060874
 20
43264.87395798579
 30
0.0
 10
3214.895374050185
 20
43265.00464558004
 30
0.0
  0
SPLINE
  5
8F29
330
2
100
AcDbEntity
  8
Hatch
 62
    21
100
AcDbSpline
210
0.0
220
0.0
230
1.0
 70
     8
 71
     3
 72
    12
 73
     8
 74
     0
 42
0.000000001
 43
0.0000000001
 40
518.4243657788678
 40
518.4243657788678
 40
518.4243657788678
 40
518.4243657788678
 40
553.4985333594053
 40
665.5156480733433
 40
773.5866701828373
 40
862.4179296964689
 40
867.9782321588048
 40
867.9782321588048
 40
867.9782321588048
 40
867.9782321588048
 10
3192.799809588856
 20
42915.67900768519
 30
0.0
 10
3191.828922714345
 20
42927.37672322353
 30
0.0
 10
3187.541620800149
 20
42976.47406737505
 30
0.0
 10
3200.499648392444
 20
43061.32224841225
 30
0.0
 10
3188.527009228634
 20
43164.29235016271
 30
0.0
 10
3198.574987293826
 20
43231.82873486207
 30
0.0
 10
3196.680314486256
 20
43263.15954212467
 30
0.0
 10
3196.548526996533
 20
43265.00464558004
 30
0.0
  0
SPLINE
  5
8F2A
330
2
100
AcDbEntity
  8
Hatch
 62
    21
100
AcDbSpline
210
0.0
220
0.0
230
1.0
 70
     8
 71
     3
 72
    11
 73
     7
 74
     0
 42
0.000000001
 43
0.0000000001
 40
102.6262987263074
 40
102.6262987263074
 40
102.6262987263074
 40
102.6262987263074
 40
144.9185237052116
 40
255.6508159603699
 40
369.7160236048991
 40
415.7897515651574
 40
415.7897515651574
 40
415.7897515651574
 40
415.7897515651574
 10
3823.203200110779
 20
42502.1370790122
 30
0.0
 10
3821.226906769656
 20
42516.18830569538
 30
0.0
 10
3814.111431973357
 20
42567.10340514985
 30
0.0
 10
3834.637380664592
 20
42656.23059266521
 30
0.0
 10
3803.294536628446
 20
42745.81248942939
 30
0.0
 10
3812.968471108432
 20
42798.46304316881
 30
0.0
 10
3815.986605368731
 20
42813.63193236489
 30
0.0
  0
SPLINE
  5
8F2B
330
2
100
AcDbEntity
  8
Hatch
 62
    21
100
AcDbSpline
210
0.0
220
0.0
230
1.0
 70
     8
 71
     3
 72
    12
 73
     8
 74
     0
 42
0.000000001
 43
0.0000000001
 40
512.9041664339073
 40
512.9041664339073
 40
512.9041664339073
 40
512.9041664339073
 40
553.4985333594053
 40
665.5156480733433
 40
773.5866701828373
 40
862.4179296964689
 40
867.9782321588007
 40
867.9782321588007
 40
867.9782321588007
 40
867.9782321588007
 10
3823.55312947634
 20
42865.0122533191
 30
0.0
 10
3821.735659283286
 20
42923.69130624628
 30
0.0
 10
3816.829666479593
 20
42974.63845582387
 30
0.0
 10
3830.068028957537
 20
43061.32224841221
 30
0.0
 10
3818.095389793727
 20
43164.29235016268
 30
0.0
 10
3828.143367858916
 20
43231.82873486203
 30
0.0
 10
3826.248695051346
 20
43263.15954212462
 30
0.0
 10
3826.116907561624
 20
43265.00464558
 30
0.0
  0
SPLINE
  5
8F2C
330
2
100
AcDbEntity
  8
Hatch
 62
    21
100
AcDbSpline
210
0.0
220
0.0
230
1.0
 70
     8
 71
     3
 72
    12
 73
     8
 74
     0
 42
0.000000001
 43
0.0000000001
 40
98.18050051820977
 40
98.18050051820977
 40
98.18050051820977
 40
98.18050051820977
 40
115.9261666301925
 40
204.7574261438278
 40
282.0254743339863
 40
385.2098379159739
 40
408.1570905049331
 40
408.1570905049331
 40
408.1570905049331
 40
408.1570905049331
 10
3812.717751968222
 20
42502.1370790122
 30
0.0
 10
3811.678110976977
 20
42508.05828096163
 30
0.0
 10
3805.413751098516
 20
42543.64585706831
 30
0.0
 10
3803.599345208813
 20
42604.78401119618
 30
0.0
 10
3814.514549793805
 20
42694.4678697139
 30
0.0
 10
3799.843432457061
 20
42762.13564200191
 30
0.0
 10
3802.650317844128
 20
42803.93468649867
 30
0.0
 10
3803.382644174559
 20
42811.5378501899
 30
0.0
  0
SPLINE
  5
8F2D
330
2
100
AcDbEntity
  8
Hatch
 62
    21
100
AcDbSpline
210
0.0
220
0.0
230
1.0
 70
     8
 71
     3
 72
    12
 73
     8
 74
     0
 42
0.000000001
 43
0.0000000001
 40
509.1680648719659
 40
509.1680648719659
 40
509.1680648719659
 40
509.1680648719659
 40
551.6013545155801
 40
677.6550784413687
 40
792.3860771997238
 40
862.4212069098177
 40
862.81634072912
 40
862.81634072912
 40
862.81634072912
 40
862.81634072912
 10
3809.704582349869
 20
42862.6668541832
 30
0.0
 10
3812.409176520974
 20
42926.32211644254
 30
0.0
 10
3811.451810543701
 20
42982.55428128666
 30
0.0
 10
3819.9325678828
 20
43076.90007863837
 30
0.0
 10
3797.784406273638
 20
43180.50986861575
 30
0.0
 10
3813.908073063957
 20
43241.58002967293
 30
0.0
 10
3814.890026060875
 20
43264.87395798576
 30
0.0
 10
3814.895374050185
 20
43265.00464558001
 30
0.0
  0
SPLINE
  5
8F2E
330
2
100
AcDbEntity
  8
Hatch
 62
    21
100
AcDbSpline
210
0.0
220
0.0
230
1.0
 70
     8
 71
     3
 72
    12
 73
     8
 74
     0
 42
0.000000001
 43
0.0000000001
 40
101.5926370584878
 40
101.5926370584878
 40
101.5926370584878
 40
101.5926370584878
 40
115.9261666301925
 40
204.7574261438278
 40
282.0254743339863
 40
385.2098379159739
 40
412.5655900766438
 40
412.5655900766438
 40
412.5655900766438
 40
412.5655900766438
 10
3836.544770891616
 20
42505.55308614048
 30
0.0
 10
3835.708390049867
 20
42510.33685563868
 30
0.0
 10
3829.806128111128
 20
42544.78057250477
 30
0.0
 10
3828.025397336421
 20
42604.78401119618
 30
0.0
 10
3838.940601921413
 20
42694.4678697139
 30
0.0
 10
3823.951501687801
 20
42763.6022783707
 30
0.0
 10
3827.287123076735
 20
42806.85637299076
 30
0.0
 10
3828.25408944005
 20
42815.91975957014
 30
0.0
  0
SPLINE
  5
8F2F
330
2
100
AcDbEntity
  8
Hatch
 62
    21
100
AcDbSpline
210
0.0
220
0.0
230
1.0
 70
     8
 71
     3
 72
     9
 73
     5
 74
     0
 42
0.000000001
 43
0.0000000001
 40
694.5573753138781
 40
694.5573753138781
 40
694.5573753138781
 40
694.5573753138781
 40
792.3860771997238
 40
836.3522418518499
 40
836.3522418518499
 40
836.3522418518499
 40
836.3522418518499
 10
3836.544770891631
 20
43097.58399866218
 30
0.0
 10
3833.212380637951
 20
43130.18237033259
 30
0.0
 10
3825.162300403395
 20
43177.40308735895
 30
0.0
 10
3834.34197483189
 20
43224.24054237107
 30
0.0
 10
3836.544770891616
 20
43238.76544292335
 30
0.0
  0
SPLINE
  5
8F30
330
2
100
AcDbEntity
  8
Hatch
 62
    21
100
AcDbSpline
210
0.0
220
0.0
230
1.0
 70
     8
 71
     3
 72
     9
 73
     5
 74
     0
 42
0.000000001
 43
0.0000000001
 40
195.6799748787335
 40
195.6799748787335
 40
195.6799748787335
 40
195.6799748787335
 40
255.6508159603699
 40
281.1569298072894
 40
281.1569298072894
 40
281.1569298072894
 40
281.1569298072894
 10
3791.54477089166
 20
42595.07875815901
 30
0.0
 10
3793.388076067325
 20
42615.06000428412
 30
0.0
 10
3796.24028043229
 20
42643.5259383459
 30
0.0
 10
3792.833897120885
 20
42671.89502048926
 30
0.0
 10
3791.544770891646
 20
42680.35182987055
 30
0.0
  0
SPLINE
  5
8F32
330
2
100
AcDbEntity
  8
Hatch
 62
    21
100
AcDbSpline
210
0.0
220
0.0
230
1.0
 70
     8
 71
     3
 72
    12
 73
     8
 74
     0
 42
0.000000001
 43
0.0000000001
 40
518.4243657788678
 40
518.4243657788678
 40
518.4243657788678
 40
518.4243657788678
 40
553.4985333594053
 40
665.5156480733433
 40
773.5866701828373
 40
862.4179296964689
 40
867.9782321588048
 40
867.9782321588048
 40
867.9782321588048
 40
867.9782321588048
 10
3794.273326543843
 20
42860.1707748191
 30
0.0
 10
3791.828922714347
 20
42927.37672322349
 30
0.0
 10
3787.54162080015
 20
42976.47406737501
 30
0.0
 10
3800.499648392446
 20
43061.32224841221
 30
0.0
 10
3788.527009228636
 20
43164.29235016268
 30
0.0
 10
3798.574987293827
 20
43231.82873486204
 30
0.0
 10
3796.680314486257
 20
43263.15954212463
 30
0.0
 10
3796.548526996534
 20
43265.00464558001
 30
0.0
  0
MTEXT
  5
9431
330
2
100
AcDbEntity
  8
Text
100
AcDbMText
 10
3583.000261776633
 20
42735.15168750344
 30
0.0
 40
17.5
 41
188.5762001123687
 71
     1
 72
     5
  1
{\fSwis721 BT|b0|i1|c0|p34;Wall bracket shall be fixed to panel within a central region of the panel 50mm either side of the centerline}
  7
1
 73
     1
 44
1.0
 90
        3
 63
   256
 45
1.5
441
  7802416
1001
ACAD
1000
ACAD_MTEXT_DEFINED_HEIGHT_BEGIN
1070
    46
1040
196.2428461512087
1000
ACAD_MTEXT_DEFINED_HEIGHT_END
  0
LEADER
  5
9432
330
2
100
AcDbEntity
  8
Text
100
AcDbLeader
  3
STANDARD
 72
     1
 76
     4
 10
3513.162160828277
 20
42542.76100867556
 30
0.0
 10
3530.250204588371
 20
42617.00053762167
 30
0.0
 10
3548.625919204879
 20
42635.65336296422
 30
0.0
 10
3573.238848982539
 20
42638.50603886623
 30
0.0
210
0.0
220
0.0
230
0.9999999999999998
1001
ACAD
1000
DSTYLE
1002
{
1070
   147
1040
1.0
1070
    77
1070
     0
1002
}
  0
MTEXT
  5
9433
330
2
100
AcDbEntity
  8
Text
100
AcDbMText
 10
3615.345692584575
 20
43146.57140572357
 30
0.0
 40
17.5
 41
144.3140328070526
 71
     1
 72
     5
  1
{\fSwis721 BT|b0|i1|c0|p34;Centreline of panel}
  7
1
 73
     1
 44
1.0
 90
        3
 63
   256
 45
1.5
441
  7802416
1001
ACAD
1000
ACAD_MTEXT_DEFINED_HEIGHT_BEGIN
1070
    46
1040
48.14121292103227
1000
ACAD_MTEXT_DEFINED_HEIGHT_END
  0
LEADER
  5
9434
330
2
100
AcDbEntity
  8
Text
100
AcDbLeader
  3
STANDARD
 72
     1
 76
     4
 10
3515.626528642231
 20
43054.407008479
 30
0.0
 10
3544.161041936324
 20
43108.09471089917
 30
0.0
 10
3580.971350012824
 20
43131.52728778391
 30
0.0
 10
3605.584279790484
 20
43134.87614207528
 30
0.0
210
0.0
220
0.0
230
0.9999999999999998
1001
ACAD
1000
DSTYLE
1002
{
1070
   147
1040
1.0
1070
    77
1070
     0
1002
}
  0
DIMENSION
  5
9435
330
2
100
AcDbEntity
  8
Text
100
AcDbDimension
  2
*D45
 10
3814.444770844494
 20
42970.49999726959
 30
0.0
 11
3514.444770764671
 21
43003.73217649566
 31
0.0
 70
    32
  1
<>mm wide Supercrete™ Panel \P(one full panel)
 71
     5
 42
600.0000001596454
  3
Dim 7
100
AcDbAlignedDimension
 13
3214.444770684848
 23
42935.87958993366
 33
0.0
 14
3814.444770844494
 24
42924.96982953814
 34
0.0
100
AcDbRotatedDimension
1001
ACAD_DIMASSOC_CALC_DIMLFAC
1040
-6.999999998137464
1001
ACAD_DIMASSOC_DIMLFAC
1040
-6.999999998137464
1001
ACAD_DIMASSOC_OVERRIDDEN_DIMLFAC
1040
0.0
  0
DIMENSION
  5
9436
330
2
100
AcDbEntity
  8
Text
100
AcDbDimension
  2
*D46
 10
3514.544770758552
 20
42408.31915901147
 30
0.0
 11
3489.5447707519
 21
42424.31270958853
 31
0.0
 70
    32
 71
     5
 42
50.00000001330409
  3
Dim 7
100
AcDbAlignedDimension
 13
3464.544770745248
 23
42502.13707902422
 33
0.0
 14
3514.544770758552
 24
42457.13707901229
 34
0.0
100
AcDbRotatedDimension
1001
ACAD_DIMASSOC_CALC_DIMLFAC
1040
-6.999999998137464
1001
ACAD_DIMASSOC_DIMLFAC
1040
-6.999999998137464
1001
ACAD_DIMASSOC_OVERRIDDEN_DIMLFAC
1040
0.0
  0
DIMENSION
  5
9437
330
2
100
AcDbEntity
  8
Text
100
AcDbDimension
  2
*D47
 10
3564.544770771856
 20
42408.31915901147
 30
0.0
 11
3539.544770765204
 21
42424.31270958853
 31
0.0
 70
    32
 71
     5
 42
50.00000001330409
  3
Dim 7
100
AcDbAlignedDimension
 13
3514.544770758552
 23
42457.13707901229
 33
0.0
 14
3564.544770771856
 24
42502.13707902422
 34
0.0
100
AcDbRotatedDimension
1001
ACAD_DIMASSOC_CALC_DIMLFAC
1040
-6.999999998137464
1001
ACAD_DIMASSOC_DIMLFAC
1040
-6.999999998137464
1001
ACAD_DIMASSOC_OVERRIDDEN_DIMLFAC
1040
0.0
  0
TEXT
  5
94DA
330
2
100
AcDbEntity
  8
3
 62
     7
100
AcDbText
 10
-2745.70155903917
 20
42234.38819460976
 30
0.0
 40
56.0
  1

 41
0.85
  7
ROMANS
100
AcDbText
  0
LINE
  5
94DB
330
2
100
AcDbEntity
  8
Title block
100
AcDbLine
 10
2854.582343029736
 20
42059.71285996905
 30
0.0
 11
2854.582343029736
 21
41826.58912230811
 31
0.0
  0
LINE
  5
94DC
330
2
100
AcDbEntity
  8
Title block
100
AcDbLine
 10
2854.582343029736
 20
41826.58912230811
 30
0.0
 11
4184.582343029735
 21
41826.58912230811
 31
0.0
  0
LINE
  5
94DD
330
2
100
AcDbEntity
  8
Title block
100
AcDbLine
 10
4184.582343029735
 20
41826.58912230811
 30
0.0
 11
4184.582343029735
 21
42059.71285996905
 31
0.0
  0
LINE
  5
94DF
330
2
100
AcDbEntity
  8
Title block
100
AcDbLine
 10
3265.598094865982
 20
41962.03282287097
 30
0.0
 11
4185.832393358912
 21
41962.03282287097
 31
0.0
  0
LINE
  5
94E0
330
2
100
AcDbEntity
  8
Title block
100
AcDbLine
 10
3265.598094865982
 20
41898.78894574415
 30
0.0
 11
4185.832393358912
 21
41898.78894574415
 31
0.0
  0
TEXT
  5
94E1
330
2
100
AcDbEntity
  8
0
100
AcDbText
 10
3296.07328085619
 20
41922.67321304069
 30
0.0
 40
17.5
  1
Date:    March 2016
  7
Title block
100
AcDbText
  0
TEXT
  5
94E2
330
2
100
AcDbEntity
  8
0
100
AcDbText
 10
3868.071609425482
 20
41923.09904802868
 30
0.0
 40
17.5
  1
Detail No.
  7
Title block
100
AcDbText
  0
TEXT
  5
94E3
330
2
100
AcDbEntity
  8
0
100
AcDbText
 10
3294.85778050552
 20
42028.51919788589
 30
0.0
 40
17.5
  1
Title:
  7
Title block
100
AcDbText
  0
LWPOLYLINE
  5
94E4
330
2
100
AcDbEntity
  8
Title block
100
AcDbPolyline
 90
        2
 70
     0
 43
0.0
 10
2854.582343029736
 20
42059.71285996905
 10
4184.582343029735
 20
42059.71285996905
  0
MTEXT
  5
94E5
330
2
100
AcDbEntity
  8
Title block
100
AcDbMText
 10
3274.606018996171
 20
41884.30266661759
 30
0.0
 40
17.5
 41
908.9207481173517
 71
     1
 72
     1
  1
This drawing is to be read in conjunction with all the current, relevant Supercrete \PTechnical Literature, Project Specific Design Documentation and Specifications
  7
Title block
 73
     1
 44
1.0
  0
LWPOLYLINE
  5
94E6
330
2
100
AcDbEntity
  8
Title block
100
AcDbPolyline
 90
        2
 70
     0
 43
0.0
 10
3555.3267146986
 20
41962.03282287097
 10
3555.3267146986
 20
41898.78894574415
  0
LWPOLYLINE
  5
94E7
330
2
100
AcDbEntity
  8
Title block
100
AcDbPolyline
 90
        2
 70
     0
 43
0.0
 10
3856.586821887741
 20
41962.03282287097
 10
3856.586821887741
 20
41898.78894574415
  0
TEXT
  5
94E8
330
2
100
AcDbEntity
  8
0
100
AcDbText
 10
3585.80190068881
 20
41922.67321304069
 30
0.0
 40
17.5
  1
Scale:
  7
Title block
100
AcDbText
  0
LINE
  5
94EE
330
2
100
AcDbEntity
  8
Title block
100
AcDbLine
 10
3264.466223963069
 20
42059.77737830812
 30
0.0
 11
3264.466223963069
 21
41826.6536406472
 31
0.0
  0
IMAGE
  5
94EF
330
2
100
AcDbEntity
  8
Title block
 92
      140
310
8C000000010000008400000006000000050000008A97DD282A4DA6401997D991EB7DE44000000000000000008A97DD282A4DA640B6B5BFCF7689E4400000000000000000FD43E8B4EE80A940B6B5BFCF7689E4400000000000000000FD43E8B4EE80A9401997D991EB7DE44000000000000000008A97DD282A4DA6401997D9
310
91EB7DE4400000000000000000
100
AcDbRasterImage
 90
        0
 10
2854.582343029736
 20
41967.36155395042
 30
0.0
 11
0.2998419026578883
 21
0.0
 31
0.0
 12
0.0
 22
0.2998419026578883
 32
0.0
 13
1367.0
 23
308.0
340
93E7
 70
     7
280
     0
281
    50
282
    50
283
     0
360
94F0
 71
     1
 91
        2
 14
-0.5
 24
-0.5
 14
1366.5
 24
307.5
  0
MTEXT
  5
94F2
330
2
100
AcDbEntity
  8
Text
100
AcDbMText
 10
4004.541189409116
 20
41947.72632781319
 30
0.0
 40
35.0
 41
247.8023596326311
 71
     1
 72
     5
  1
10.1.6
  7
7
 73
     1
 44
1.0
1001
ACAD
1000
ACAD_MTEXT_COLUMN_INFO_BEGIN
1070
    75
1070
     2
1070
    79
1070
     0
1070
    76
1070
     1
1070
    78
1070
     0
1070
    48
1040
247.8023596326311
1070
    49
1040
87.5
1070
    50
1070
     1
1040
0.0
1000
ACAD_MTEXT_COLUMN_INFO_END
  0
MTEXT
  5
94F3
102
{ACAD_XDICTIONARY
360
955D
102
}
330
2
100
AcDbEntity
  8
Text
100
AcDbMText
 10
3504.381764890208
 20
42055.55754215942
 30
0.0
 40
30.0
 41
495.6047192652622
 71
     1
 72
     5
  1
\pi59.808;A.W.S. - Type 1 Wall\P\pi118.36;Bracket Fixing
  7
7
 73
     1
 44
1.0
1001
ACAD
1000
ACAD_MTEXT_COLUMN_INFO_BEGIN
1070
    75
1070
     2
1070
    79
1070
     0
1070
    76
1070
     1
1070
    78
1070
     0
1070
    48
1040
495.6047192652622
1070
    49
1040
87.5
1070
    50
1070
     1
1040
0.0
1000
ACAD_MTEXT_COLUMN_INFO_END
  0
VIEWPORT
  5
5F
330
5E
100
AcDbEntity
 67
     1
  8
0
100
AcDbViewport
 10
87.70812920605621
 20
546.6625540199975
 30
0.0
 40
449.2527573529804
 41
299.3737365081025
 68
     1
 69
     1
 12
87.70812920605621
 22
546.6625540199975
 13
0.0
 23
0.0
 14
1.0
 24
1.0
 15
1900.0
 25
1900.0
 16
0.0
 26
0.0
 36
1.0
 17
0.0
 27
0.0
 37
0.0
 42
50.0
 43
0.0
 44
0.0
 45
299.3737365081025
 50
0.0
 51
0.0
 72
 20000
 90
    32768
  1

281
     0
 71
     1
 74
     0
110
0.0
120
0.0
130
0.0
111
1.0
121
0.0
131
0.0
112
0.0
122
1.0
132
0.0
 79
     0
146
0.0
170
     0
  0
VIEWPORT
  5
24CE
102
{ACAD_REACTORS
330
8A00
330
8A1D
102
}
330
5E
100
AcDbEntity
 67
     1
  8
DEFPOINTS
100
AcDbViewport
 10
85.65305244497086
 20
564.505653888466
 30
0.0
 40
185.7014191676817
 41
223.046449343657
 68
     2
 69
     2
 12
-19667.26741854514
 22
8848.634111611909
 13
0.0
 23
0.0
 14
1.0
 24
1.0
 15
1900.0
 25
1900.0
 16
0.0
 26
0.0
 36
1.0
 17
23187.54216236222
 27
34067.94128341666
 37
1200.0
 42
50.0
 43
0.0
 44
0.0
 45
1561.325144990167
 50
0.0
 51
0.0
 72
 20000
 90
    32768
  1

281
     0
 71
     1
 74
     0
110
0.0
120
0.0
130
0.0
111
1.0
121
0.0
131
0.0
112
0.0
122
1.0
132
0.0
 79
     0
146
0.0
170
     0
  0
MTEXT
  5
35D8
330
5E
100
AcDbEntity
 67
     1
  8
Text
100
AcDbMText
 10
124.8823647995191
 20
576.556779659097
 30
0.0
 40
2.5
 41
0.0
 71
     4
 72
     1
  1
\A1;
  7
1
 73
     1
 44
1.0
  0
MTEXT
  5
35DC
330
5E
100
AcDbEntity
 67
     1
  8
Text
100
AcDbMText
 10
29.07351975008396
 20
504.4051980153083
 30
0.0
 40
2.5
 41
0.0
 71
     6
 72
     1
  1
\A1;
  7
1
 73
     1
 44
1.0
  0
INSERT
  5
3700
330
5E
100
AcDbEntity
 67
     1
  8
Border
100
AcDbBlockReference
 66
     1
  2
A4 Title Block
 10
43.94837826781599
 20
429.9922392459064
 30
0.0
  0
ATTRIB
  5
3701
330
3700
100
AcDbEntity
 67
     1
  8
Title block
100
AcDbText
 10
83.52827856909994
 20
432.4136495083842
 30
0.0
 40
4.0
  1
A.W.S. - Wall Type 1 Bracket Fixing
100
AcDbAttribute
  2
TITLE
 70
     0
1001
AcDbAttr
1070
     0
1070
     1
  0
ATTRIB
  5
3702
330
3700
100
AcDbEntity
 67
     1
  8
Title block
100
AcDbText
 10
57.60037104454614
 20
418.168207718191
 30
0.0
 40
2.5
  1
December 2013
100
AcDbAttribute
  2
DATE
 70
     0
1001
AcDbAttr
1070
     0
1070
     1
  0
ATTRIB
  5
3703
330
3700
100
AcDbEntity
 67
     1
  8
Title block
100
AcDbText
 10
107.1846752693238
 20
418.0578056994102
 30
0.0
 40
2.5
  1
1:5
100
AcDbAttribute
  2
SCALE
 70
     0
1001
AcDbAttr
1070
     0
1070
     1
  0
ATTRIB
  5
3704
330
3700
100
AcDbEntity
 67
     1
  8
Title block
100
AcDbText
 10
153.8088024518486
 20
417.8415120890168
 30
0.0
 40
3.5
  1
10.1.6
100
AcDbAttribute
  2
DRGNO
 70
     0
1001
AcDbAttr
1070
     0
1070
     1
  0
ATTRIB
  5
3705
330
3700
100
AcDbEntity
 67
     1
  8
Title block
100
AcDbText
 10
104.9671558957243
 20
425.7933780302356
 30
0.0
 40
4.0
  1

100
AcDbAttribute
  2
TITLE2
 70
     0
1001
AcDbAttr
1070
     0
1070
     1
  0
SEQEND
  5
3706
330
3700
100
AcDbEntity
 67
     1
  8
Border
  0
MTEXT
  5
4482
330
5E
100
AcDbEntity
 67
     1
  8
Text
100
AcDbMText
 10
94.61384074370471
 20
538.5879813674153
 30
0.0
 40
2.5
 41
26.93945715890982
 71
     1
 72
     5
  1
{\fSwis721 BT|b0|i1|c0|p34;Wall bracket shall be fixed to panel within a central region of the panel 50mm either side of the centerline}
  7
1
 73
     1
 44
1.0
 90
        3
 63
   256
 45
1.5
441
  7802416
1001
ACAD
1000
ACAD_MTEXT_DEFINED_HEIGHT_BEGIN
1070
    46
1040
28.03469230731554
1000
ACAD_MTEXT_DEFINED_HEIGHT_END
  0
LEADER
  5
44CA
330
5E
100
AcDbEntity
 67
     1
  8
Text
100
AcDbLeader
  3
STANDARD
 72
     1
 76
     4
 10
84.63696917965421
 20
511.1035986777129
 30
0.0
 10
87.07811828823901
 20
521.7092456700197
 30
0.0
 10
89.70322037631172
 20
524.3739350046698
 30
0.0
 10
93.21935320169165
 20
524.781460133525
 30
0.0
1001
ACAD
1000
DSTYLE
1002
{
1070
   147
1040
1.0
1070
    77
1070
     0
1002
}
  0
MTEXT
  5
8828
330
5E
100
AcDbEntity
 67
     1
  8
Text
100
AcDbMText
 10
99.23461657341091
 20
597.3622268274375
 30
0.0
 40
2.5
 41
20.61629040100752
 71
     1
 72
     5
  1
{\fSwis721 BT|b0|i1|c0|p34;Centreline of panel}
  7
1
 73
     1
 44
1.0
 90
        3
 63
   256
 45
1.5
441
  7802416
1001
ACAD
1000
ACAD_MTEXT_DEFINED_HEIGHT_BEGIN
1070
    46
1040
6.877316131576037
1000
ACAD_MTEXT_DEFINED_HEIGHT_END
  0
LEADER
  5
8829
330
5E
100
AcDbEntity
 67
     1
  8
Text
100
AcDbLeader
  3
STANDARD
 72
     1
 76
     4
 10
84.98902172450494
 20
584.195884363926
 30
0.0
 10
89.06538076651827
 20
591.8655561382366
 30
0.0
 10
94.3239962060179
 20
595.2130671217658
 30
0.0
 10
97.84012903139785
 20
595.6914748776743
 30
0.0
1001
ACAD
1000
DSTYLE
1002
{
1070
   147
1040
1.0
1070
    77
1070
     0
1002
}
  0
DIMENSION
  5
8835
330
5E
100
AcDbEntity
 67
     1
  8
Text
100
AcDbDimension
  2
*D36
 10
127.6773420391136
 20
572.209168476859
 30
0.0
 11
84.82019917056751
 21
576.9566226520118
 31
0.0
 70
    32
  1
<>mm wide Supercrete™ Panel \P(one full panel)
 71
     5
 42
600.0000000000002
  3
STANDARD
100
AcDbAlignedDimension
 13
41.96305630202135
 23
567.2633960003031
 33
0.0
 14
127.6773420391136
 24
565.7048588009421
 34
0.0
100
AcDbRotatedDimension
1001
ACAD_DIMASSOC_CALC_DIMLFAC
1040
-6.999999998137464
1001
ACAD_DIMASSOC_DIMLFAC
1040
-6.999999998137464
1001
ACAD_DIMASSOC_OVERRIDDEN_DIMLFAC
1040
0.0
1001
ACAD
1000
DSTYLE
1002
{
1070
    41
1040
2.0
1070
    49
1040
10.0
1070
    50
1040
1.570796326794896
1070
   144
1040
-6.999999998137464
1070
   173
1070
     1
1070
   279
1070
     1
1070
   343
1005
8A21
1070
   344
1005
8A21
1002
}
  0
DIMENSION
  5
89E7
102
{ACAD_XDICTIONARY
360
89F5
102
}
102
{ACAD_REACTORS
330
8A00
102
}
330
5E
100
AcDbEntity
 67
     1
  8
Text
100
AcDbDimension
  2
*D37
 10
84.83448488397899
 20
491.8976201542778
 30
0.0
 11
81.26305631160013
 21
494.1824130938569
 31
0.0
 70
    32
 71
     5
 42
49.99999999999997
  3
STANDARD
100
AcDbAlignedDimension
 13
77.6916277392213
 23
505.3001801560994
 33
0.0
 14
84.83448488397899
 24
498.8716087258186
 34
0.0
100
AcDbRotatedDimension
1001
ACAD_DIMASSOC_CALC_DIMLFAC
1040
-6.999999998137464
1001
ACAD_DIMASSOC_DIMLFAC
1040
-6.999999998137464
1001
ACAD_DIMASSOC_OVERRIDDEN_DIMLFAC
1040
0.0
1001
ACAD
1000
DSTYLE
1002
{
1070
    41
1040
2.0
1070
   343
1005
8A21
1070
   173
1070
     1
1070
   344
1005
8A21
1070
   144
1040
-6.999999998137464
1070
    49
1040
10.0
1070
    50
1040
1.570796326794896
1002
}
  0
DIMENSION
  5
8A04
102
{ACAD_XDICTIONARY
360
8A12
102
}
102
{ACAD_REACTORS
330
8A1D
102
}
330
5E
100
AcDbEntity
 67
     1
  8
Text
100
AcDbDimension
  2
*D38
 10
91.97734202873666
 20
491.8976201542773
 30
0.0
 11
88.40591345635782
 21
494.1824130938563
 31
0.0
 70
    32
 71
     5
 42
50.00000000000007
  3
STANDARD
100
AcDbAlignedDimension
 13
84.83448488397897
 23
498.8716087258181
 33
0.0
 14
91.97734202873666
 24
505.3001801560989
 34
0.0
100
AcDbRotatedDimension
1001
ACAD_DIMASSOC_CALC_DIMLFAC
1040
-6.999999998137464
1001
ACAD_DIMASSOC_DIMLFAC
1040
-6.999999998137464
1001
ACAD_DIMASSOC_OVERRIDDEN_DIMLFAC
1040
0.0
1001
ACAD
1000
DSTYLE
1002
{
1070
    41
1040
2.0
1070
   343
1005
8A21
1070
   173
1070
     1
1070
   344
1005
8A21
1070
   279
1070
     1
1070
   144
1040
-6.999999998137464
1070
    49
1040
10.0
1070
    50
1040
1.570796326794896
1002
}
  0
ENDSEC
  0
SECTION
  2
OBJECTS
  0
DICTIONARY
  5
562
330
0
100
AcDbDictionary
281
     1
  3
ACAD_2007HEADERVARS_RT
350
9560
  3
ACAD_CIP_PREVIOUS_PRODUCT_INFO
350
908A
  3
ACAD_COLOR
350
2F60
  3
ACAD_DETAILVIEWSTYLE
350
907E
  3
ACAD_GROUP
350
560
  3
ACAD_IMAGE_DICT
350
3025
  3
ACAD_IMAGE_VARS
350
302E
  3
ACAD_LAYOUT
350
58C
  3
ACAD_MATERIAL
350
2F36
  3
ACAD_MLEADERSTYLE
350
2F85
  3
ACAD_MLINESTYLE
350
561
  3
ACAD_PLOTSETTINGS
350
58D
  3
ACAD_PLOTSTYLENAME
350
58A
  3
ACAD_SCALELIST
350
2F63
  3
ACAD_SECTIONVIEWSTYLE
350
907B
  3
ACAD_TABLESTYLE
350
2F61
  3
ACAD_VISUALSTYLE
350
2F4F
  3
AcadDim
350
35D6
  3
ACDB_RECOMPOSE_DATA
350
955F
  3
AcDbVariableDictionary
350
599
  3
AcDsDecomposeData
350
9568
  3
AEC_PROPERTY_SET_DEFS
350
36FF
  3
ASE_INDEX_DICTIONARY
350
596
  0
DICTIONARY
  5
2FC5
330
55B
100
AcDbDictionary
280
     1
281
     1
  0
DICTIONARY
  5
2C65
330
553
100
AcDbDictionary
280
     1
281
     1
  3
ACAD_LAYERFILTERS
360
2C66
  3
ACAD_LAYERSTATES
360
2FE7
  0
DICTIONARY
  5
2F90
330
24
100
AcDbDictionary
280
     1
281
     1
  3
ADSK_XREC_LAYER_RECONCILED
360
2F91
  0
DICTIONARY
  5
2FF7
330
2FF6
100
AcDbDictionary
280
     1
281
     1
  0
DICTIONARY
  5
2FF9
330
2FF8
100
AcDbDictionary
280
     1
281
     1
  0
DICTIONARY
  5
30CC
330
2
100
AcDbDictionary
280
     1
281
     1
  3
ACAD_SORTENTS
360
30CD
  0
DICTIONARY
  5
3021
330
300A
100
AcDbDictionary
280
     1
281
     1
  3
ACAD_SORTENTS
360
93E6
  0
DICTIONARY
  5
5782
330
5724
100
AcDbDictionary
280
     1
281
     1
  3
ACAD_SORTENTS
360
5783
  0
IMAGEDEF_REACTOR
  5
93E5
330
93E4
100
AcDbRasterImageDefReactor
 90
        2
330
93E4
  0
DICTIONARY
  5
918E
330
90C2
100
AcDbDictionary
280
     1
281
     1
  3
ACAD_MTEXT_2008_RT
360
95A3
  0
DICTIONARY
  5
95A4
330
94C2
100
AcDbDictionary
280
     1
281
     1
  3
ACAD_MTEXT_2008_RT
360
95A5
  0
IMAGEDEF_REACTOR
  5
94F0
330
94EF
100
AcDbRasterImageDefReactor
 90
        2
330
94EF
  0
DICTIONARY
  5
955D
330
94F3
100
AcDbDictionary
280
     1
281
     1
  3
ACAD_MTEXT_2008_RT
360
955E
  0
DICTIONARY
  5
89F5
330
89E7
100
AcDbDictionary
280
     1
281
     1
  3
ACAD_DIMASSOC
360
8A00
  0
DICTIONARY
  5
8A12
330
8A04
100
AcDbDictionary
280
     1
281
     1
  3
ACAD_DIMASSOC
360
8A1D
  0
DICTIONARY
  5
9560
102
{ACAD_REACTORS
330
562
102
}
330
562
100
AcDbDictionary
281
     1
  3
DIMFXL
350
9561
  3
DIMJOGANG
350
9562
  0
XRECORD
  5
908A
102
{ACAD_REACTORS
330
562
102
}
330
562
100
AcDbXrecord
280
     1
300
ACD
300
2013
300
ACD_F_S
  0
DICTIONARY
  5
2F60
102
{ACAD_REACTORS
330
562
102
}
330
562
100
AcDbDictionary
281
     1
  0
DICTIONARY
  5
907E
102
{ACAD_REACTORS
330
562
102
}
330
562
100
AcDbDictionary
281
     1
  3
Imperial24
350
907F
  0
DICTIONARY
  5
560
102
{ACAD_REACTORS
330
562
102
}
330
562
100
AcDbDictionary
281
     1
  0
DICTIONARY
  5
3025
102
{ACAD_REACTORS
330
562
102
}
330
562
100
AcDbDictionary
281
     1
  3
Supercrete Hi Res
350
93E7
  0
RASTERVARIABLES
  5
302E
102
{ACAD_REACTORS
330
562
102
}
330
562
100
AcDbRasterVariables
 90
        0
 70
     1
 71
     1
 72
     0
  0
DICTIONARY
  5
58C
102
{ACAD_REACTORS
330
562
102
}
330
562
100
AcDbDictionary
281
     1
  3
12.1.6
350
58F
  3
Model
350
58E
  0
DICTIONARY
  5
2F36
102
{ACAD_REACTORS
330
562
102
}
330
562
100
AcDbDictionary
281
     1
  3
ByBlock
350
2F3F
  3
ByLayer
350
2F37
  3
Global
350
2F47
  0
DICTIONARY
  5
2F85
102
{ACAD_REACTORS
330
562
102
}
330
562
100
AcDbDictionary
281
     1
  3
Standard
350
2F86
  0
DICTIONARY
  5
561
102
{ACAD_REACTORS
330
562
102
}
330
562
100
AcDbDictionary
281
     1
  3
STANDARD
350
563
  0
DICTIONARY
  5
58D
102
{ACAD_REACTORS
330
562
102
}
330
562
100
AcDbDictionary
281
     1
  0
ACDBDICTIONARYWDFLT
  5
58A
102
{ACAD_REACTORS
330
562
102
}
330
562
100
AcDbDictionary
281
     1
  3
Normal
350
58B
100
AcDbDictionaryWithDefault
340
58B
  0
DICTIONARY
  5
2F63
102
{ACAD_REACTORS
330
562
102
}
330
562
100
AcDbDictionary
281
     1
  3
A0
350
2F64
  3
A1
350
2F65
  3
A2
350
2F66
  3
A3
350
2F67
  3
A4
350
2F68
  3
A5
350
2F69
  3
A6
350
2F6A
  3
A7
350
2F6B
  3
A8
350
2F6C
  3
A9
350
2F6D
  3
B0
350
2F6E
  3
B1
350
2F6F
  3
B2
350
2F70
  3
B3
350
2F71
  3
B4
350
2F72
  3
B5
350
2F73
  3
B6
350
2F74
  3
B7
350
2F75
  3
B8
350
2F76
  3
B9
350
2F77
  3
C0
350
2F78
  3
C1
350
2F79
  3
C2
350
2F7A
  3
C3
350
2F7B
  3
C4
350
2F7C
  3
C5
350
2F7D
  3
C6
350
2F7E
  3
C7
350
2F7F
  3
C8
350
2F80
  3
C9
350
2F81
  3
D0
350
2F82
  3
D1
350
2F83
  3
D2
350
2F84
  0
DICTIONARY
  5
907B
102
{ACAD_REACTORS
330
562
102
}
330
562
100
AcDbDictionary
281
     1
  3
Imperial24
350
907D
  0
DICTIONARY
  5
2F61
102
{ACAD_REACTORS
330
562
102
}
330
562
100
AcDbDictionary
281
     1
  3
Standard
350
2F62
  0
DICTIONARY
  5
2F4F
102
{ACAD_REACTORS
330
562
102
}
330
562
100
AcDbDictionary
281
     1
  3
2dWireframe
350
2F55
  3
3D Hidden
350
2F57
  3
3dWireframe
350
2F56
  3
Basic
350
2F54
  3
Brighten
350
2F5B
  3
ColorChange
350
2F5F
  3
Conceptual
350
2F58
  3
Dim
350
2F5A
  3
EdgeColorOff
350
907A
  3
Facepattern
350
2F5E
  3
Flat
350
2F50
  3
FlatWithEdges
350
2F51
  3
Gouraud
350
2F52
  3
GouraudWithEdges
350
2F53
  3
Hidden
350
9072
  3
JitterOff
350
9078
  3
Linepattern
350
2F5D
  3
OverhangOff
350
9079
  3
Realistic
350
2F59
  3
Shaded
350
9077
  3
Shaded with edges
350
9076
  3
Shades of Gray
350
9073
  3
Sketchy
350
9074
  3
Thicken
350
2F5C
  3
Wireframe
350
9071
  3
X-Ray
350
9075
  0
XRECORD
  5
35D6
102
{ACAD_REACTORS
330
562
102
}
330
562
100
AcDbXrecord
280
     1
 90
   990106
  3

 60
     0
 61
     0
 62
     2
 63
     2
 64
     0
 65
     1
 66
     0
 67
     4
 68
     1
 69
     0
 70
     0
 71
     0
 72
     0
 40
0.0
170
     1
340
35DC
  0
XRECORD
  5
955F
102
{ACAD_REACTORS
330
562
102
}
330
562
100
AcDbXrecord
280
     1
 90
        1
330
2F62
330
94F2
330
94F3
  0
DICTIONARY
  5
599
102
{ACAD_REACTORS
330
562
102
}
330
562
100
AcDbDictionary
281
     1
  3
CANNOSCALE
350
2FD3
  3
CMLEADERSTYLE
350
2FD2
  3
CTABLESTYLE
350
2FD1
  3
CVIEWDETAILSTYLE
350
9190
  3
CVIEWSECTIONSTYLE
350
9191
  3
DIMASSOC
350
59A
  0
DICTIONARY
  5
9568
102
{ACAD_REACTORS
330
562
102
}
330
562
100
AcDbDictionary
281
     1
  3
AcDsRecords
350
956A
  3
AcDsSchemas
350
9569
1001
ACAD
1070
     2
  0
DICTIONARY
  5
36FF
102
{ACAD_REACTORS
330
562
102
}
330
562
100
AcDbDictionary
281
     1
  0
DICTIONARY
  5
596
102
{ACAD_REACTORS
330
562
102
}
330
562
100
AcDbDictionary
281
     1
  3
ASEBlockHierarchyIndexRecord
350
598
1001
DCO15
1040
1440471924.124
  0
DICTIONARY
  5
2C66
102
{ACAD_REACTORS
330
2C65
102
}
330
2C65
100
AcDbDictionary
280
     1
281
     1
  3
DIMENSION
360
2C67
  3
HB_X
360
2C68
  0
DICTIONARY
  5
2FE7
102
{ACAD_REACTORS
330
2C65
102
}
330
2C65
100
AcDbDictionary
281
     1
  3
ACET-LAYISO
350
35F7
  0
XRECORD
  5
2F91
102
{ACAD_REACTORS
330
2F90
102
}
330
2F90
100
AcDbXrecord
280
     1
290
     1
  0
SORTENTSTABLE
  5
30CD
102
{ACAD_REACTORS
330
30CC
102
}
330
30CC
100
AcDbSortentsTable
330
2
331
94E3
  5
94DC
331
77C5
  5
7AF2
331
7687
  5
77C6
331
8F1E
  5
8F1E
331
8F2D
  5
8F2D
331
8F28
  5
8F22
331
9433
  5
94EB
331
8F19
  5
8F19
331
94E8
  5
94E1
331
880F
  5
880F
331
8F14
  5
8F13
331
8F32
  5
8F32
331
7BD6
  5
7BE0
331
7420
  5
7788
331
7BE0
  5
7BE3
331
94E7
  5
94E0
331
94E2
  5
94DB
331
8F1D
  5
8F1D
331
9437
  5
94EF
331
7417
  5
75B6
331
8F0E
  5
8F0E
331
8F2C
  5
8F2C
331
94DD
  5
9434
331
8F27
  5
8F20
331
9432
  5
94EA
331
7412
  5
7421
331
8F18
  5
8F18
331
8CDC
  5
8811
331
8F13
  5
8F12
331
8F22
  5
8F24
331
880E
  5
8AC4
331
7BE4
  5
7BEB
331
8804
  5
8804
331
7BDA
  5
7BE2
331
94E6
  5
94DF
331
94E1
  5
94DA
331
8F2B
  5
8F2B
331
9436
  5
94EE
331
7416
  5
768A
331
8F1C
  5
8F1C
331
94DC
  5
9433
331
9431
  5
94E9
331
7411
  5
7420
331
8F17
  5
8F17
331
8F26
  5
8F28
331
768A
  5
74F6
331
8F21
  5
8F23
331
8F12
  5
8F11
331
8F30
  5
8F30
331
8DF0
  5
880E
331
37DF
  5
7411
331
87E1
  5
4644
331
7BE3
  5
7BE8
331
7BE8
  5
7FEE
331
94E5
  5
94DE
331
8F2F
  5
8F2F
331
77C7
  5
7AF6
331
94EF
  5
94E8
331
94E0
  5
9437
331
8F2A
  5
8F2A
331
8F1B
  5
8F1B
331
9435
  5
94ED
331
7415
  5
7422
331
94DB
  5
9432
331
8F16
  5
8F16
331
8F25
  5
8F27
331
8F20
  5
8F21
331
8F11
  5
8F14
331
7BE7
  5
7BEC
331
7689
  5
7687
331
7788
  5
7689
331
3751
  5
7414
331
8BD0
  5
8CDC
331
7BD3
  5
7BDA
331
7BE2
  5
7BE7
331
8811
  5
8BD0
331
94E4
  5
94DD
331
8F2E
  5
8F2E
331
8F1F
  5
8F1F
331
7787
  5
7787
331
77C6
  5
7AF5
331
94EE
  5
94E7
331
94DF
  5
9436
331
8F29
  5
8F29
331
9434
  5
94EC
331
7414
  5
7688
331
8F0B
  5
8F0B
331
8F1A
  5
8F1A
331
94DA
  5
9431
331
8F15
  5
8F15
331
7421
  5
77C5
331
7BD7
  5
7BE1
331
7FED
  5
4260
331
57A2
  5
7417
331
7688
  5
77C7
331
5795
  5
7416
331
375F
  5
7415
331
7BE1
  5
7BE4
331
83E7
  5
463D
331
7BEB
  5
83E8
331
8810
  5
8810
  0
SORTENTSTABLE
  5
93E6
102
{ACAD_REACTORS
330
3021
102
}
330
3021
100
AcDbSortentsTable
330
300A
  0
SORTENTSTABLE
  5
5783
102
{ACAD_REACTORS
330
5782
102
}
330
5782
100
AcDbSortentsTable
330
5724
  0
XRECORD
  5
95A3
102
{ACAD_REACTORS
330
918E
102
}
330
918E
100
AcDbXrecord
280
     1
 40
141216.0
  1
\A1;600mm wide Supercrete™ Panel \P(one full panel)
  0
XRECORD
  5
95A5
102
{ACAD_REACTORS
330
95A4
102
}
330
95A4
100
AcDbXrecord
280
     1
 40
141216.0
  1
\A1;600mm wide Supercrete™ Panel \P(one full panel)
  0
XRECORD
  5
955E
102
{ACAD_REACTORS
330
955D
102
}
330
955D
100
AcDbXrecord
280
     1
 40
130503.0
  1
\pxqc;A.W.S. - Type 1 Wall\PBracket Fixing
  0
DIMASSOC
  5
8A00
102
{ACAD_REACTORS
330
89F5
102
}
330
89F5
100
AcDbDimAssoc
330
89E7
 90
        3
 70
     1
 71
     0
  1
AcDbOsnapPointRef
 72
    13
331
24CE
331
880F
 73
     2
 91
        0
 40
-0.0000000000000066
 10
0.0
 20
0.0
 30
2.000000000000000E+50
 75
     0
  1
AcDbOsnapPointRef
 72
    13
331
24CE
331
8804
 73
     2
 91
        0
 40
0.0000000000000022
 10
0.0
 20
0.0
 30
2.000000000000000E+50
 75
     0
  0
DIMASSOC
  5
8A1D
102
{ACAD_REACTORS
330
8A12
102
}
330
8A12
100
AcDbDimAssoc
330
8A04
 90
        3
 70
     1
 71
     0
  1
AcDbOsnapPointRef
 72
    13
331
24CE
331
8804
 73
     2
 91
        0
 40
0.0000000000000022
 10
0.0
 20
0.0
 30
2.000000000000000E+50
 75
     0
  1
AcDbOsnapPointRef
 72
     6
331
24CE
331
5795
 73
     2
 91
        0
 40
0.5499773497538757
 10
0.0
 20
0.0
 30
0.0
332
24CE
332
880E
 74
     2
 92
        0
 75
     0
  0
XRECORD
  5
9561
102
{ACAD_REACTORS
330
9560
102
}
330
9560
100
AcDbXrecord
280
     1
 40
10.0
  0
XRECORD
  5
9562
102
{ACAD_REACTORS
330
9560
102
}
330
9560
100
AcDbXrecord
280
     1
 40
1.570796326794896
  0
ACDBDETAILVIEWSTYLE
  5
907F
102
{ACAD_REACTORS
330
907E
102
}
330
907E
100
AcDbModelDocViewStyle
 70
     0
  3
Imperial24
290
     0
100
AcDbDetailViewStyle
 70
     0
 71
     0
 90
        3
 71
     1
340
555
 62
   256
 40
0.24
340
0
 62
   256
 40
0.24
300

 40
0.36
280
     3
 71
     2
340
5
 90
       25
 62
   256
 71
     3
340
555
 62
   256
 40
0.24
 90
        1
 40
0.75
 90
        1
300
%<\AcVar ViewType \f "%tc1">% %<\AcVar ViewDetailId>%\PSCALE %<\AcVar ViewScale \f "%sn">%
 71
     4
340
5
 90
       25
 62
   256
340
5
 90
       25
 62
   256
280
     0
  0
IMAGEDEF
  5
93E7
102
{ACAD_REACTORS
330
93E5
330
3025
330
94F0
102
}
330
3025
100
AcDbRasterImageDef
 90
        0
  1
\\SAMBA24\dennis\hebel\Technical Support\Documents\Logos\Supercrete Hi Res.jpg
 10
1367.0
 20
308.0
 11
0.0846666666666667
 21
0.0846666666666667
280
     1
281
     5
  0
LAYOUT
  5
58F
102
{ACAD_XDICTIONARY
360
2FEB
102
}
102
{ACAD_REACTORS
330
58C
102
}
330
58C
100
AcDbPlotSettings
  1

  2
Adobe PDF.pc3
  4
A4
  6

 40
3.174999952316284
 41
3.174999952316284
 42
3.175003051757812
 43
3.17498779296875
 44
209.9733276367187
 45
297.0318298339844
 46
0.0
 47
0.0
 48
-18.13873906734903
 49
401.3216390553216
140
171.861260932651
141
684.3216390553216
142
1.0
143
1.0
 70
   672
 72
     1
 73
     0
 74
     5
  7
Hebel monochrome.ctb
 75
    16
147
0.9999999999999998
 76
     0
 77
     2
 78
   300
148
18.13873906734903
149
-401.3216390553216
100
AcDbLayout
  1
12.1.6
 70
     0
 71
     1
 10
-21.31373901966532
 20
398.1466391030053
 11
188.6595886170535
 21
695.1784689369897
 12
0.0
 22
0.0
 32
0.0
 14
-9.445861934423191
 24
408.7933291966512
 34
0.0
 15
180.7327166840307
 25
685.3963846707418
 35
0.0
146
0.0
 13
0.0
 23
0.0
 33
0.0
 16
1.0
 26
0.0
 36
0.0
 17
0.0
 27
1.0
 37
0.0
 76
     0
330
5E
331
5F
1001
ACAD_PSEXT
1000
Adobe PDF.pc3
1000
Adobe PDF Converter
1000
Documents\*.pdf
1000

1070
     0
  0
LAYOUT
  5
58E
102
{ACAD_REACTORS
330
58C
102
}
330
58C
100
AcDbPlotSettings
  1

  2
Adobe PDF.pc3
  4
A4
  6

 40
3.174999952316284
 41
3.174999952316284
 42
3.175003051757812
 43
3.17498779296875
 44
209.9733276367187
 45
297.0318298339844
 46
-107.3721477961283
 47
2.186902147890663
 48
0.0
 49
0.0
140
0.0
141
0.0
142
1.0
143
7.0
 70
 11940
 72
     1
 73
     0
 74
     0
  7
Hebel monochrome.ctb
 75
     0
147
0.0992571495349466
 76
     0
 77
     2
 78
   300
148
21131.62861813288
149
-7724.628345201207
100
AcDbLayout
  1
Model
 70
     1
 71
     0
 10
0.0
 20
0.0
 11
12.0
 21
9.0
 12
0.0
 22
0.0
 32
0.0
 14
0.0
 24
0.0
 34
0.0
 15
0.0
 25
0.0
 35
0.0
146
0.0
 13
0.0
 23
0.0
 33
0.0
 16
1.0
 26
0.0
 36
0.0
 17
0.0
 27
1.0
 37
0.0
 76
     0
330
2
331
2F34
1001
ACAD_PSEXT
1000
Adobe PDF.pc3
1000
Adobe PDF Converter
1000
Documents\*.pdf
1000

1070
     0
  0
MATERIAL
  5
2F3F
102
{ACAD_XDICTIONARY
360
2F40
102
}
102
{ACAD_REACTORS
330
2F36
102
}
330
2F36
100
AcDbMaterial
  1
ByBlock
 72
     0
 43
0.0208333333333333
 43
0.0
 43
0.0
 43
0.0
 43
0.0
 43
0.0208333333333333
 43
0.0
 43
0.0
 43
0.0
 43
0.0
 43
1.0
 43
0.0
 43
0.0
 43
0.0
 43
0.0
 43
1.0
 77
     0
 47
0.0208333333333333
 47
0.0
 47
0.0
 47
0.0
 47
0.0
 47
0.0208333333333333
 47
0.0
 47
0.0
 47
0.0
 47
0.0
 47
1.0
 47
0.0
 47
0.0
 47
0.0
 47
0.0
 47
1.0
171
     0
 49
0.0208333333333333
 49
0.0
 49
0.0
 49
0.0
 49
0.0
 49
0.0208333333333333
 49
0.0
 49
0.0
 49
0.0
 49
0.0
 49
1.0
 49
0.0
 49
0.0
 49
0.0
 49
0.0
 49
1.0
175
     0
142
0.0208333333333333
142
0.0
142
0.0
142
0.0
142
0.0
142
0.0208333333333333
142
0.0
142
0.0
142
0.0
142
0.0
142
1.0
142
0.0
142
0.0
142
0.0
142
0.0
142
1.0
179
     0
144
0.0208333333333333
144
0.0
144
0.0
144
0.0
144
0.0
144
0.0208333333333333
144
0.0
144
0.0
144
0.0
144
0.0
144
1.0
144
0.0
144
0.0
144
0.0
144
0.0
144
1.0
147
0.0208333333333333
147
0.0
147
0.0
147
0.0
147
0.0
147
0.0208333333333333
147
0.0
147
0.0
147
0.0
147
0.0
147
1.0
147
0.0
147
0.0
147
0.0
147
0.0
147
1.0
  0
MATERIAL
  5
2F37
102
{ACAD_XDICTIONARY
360
2F38
102
}
102
{ACAD_REACTORS
330
2F36
102
}
330
2F36
100
AcDbMaterial
  1
ByLayer
 72
     0
 43
0.0208333333333333
 43
0.0
 43
0.0
 43
0.0
 43
0.0
 43
0.0208333333333333
 43
0.0
 43
0.0
 43
0.0
 43
0.0
 43
1.0
 43
0.0
 43
0.0
 43
0.0
 43
0.0
 43
1.0
 77
     0
 47
0.0208333333333333
 47
0.0
 47
0.0
 47
0.0
 47
0.0
 47
0.0208333333333333
 47
0.0
 47
0.0
 47
0.0
 47
0.0
 47
1.0
 47
0.0
 47
0.0
 47
0.0
 47
0.0
 47
1.0
171
     0
 49
0.0208333333333333
 49
0.0
 49
0.0
 49
0.0
 49
0.0
 49
0.0208333333333333
 49
0.0
 49
0.0
 49
0.0
 49
0.0
 49
1.0
 49
0.0
 49
0.0
 49
0.0
 49
0.0
 49
1.0
175
     0
142
0.0208333333333333
142
0.0
142
0.0
142
0.0
142
0.0
142
0.0208333333333333
142
0.0
142
0.0
142
0.0
142
0.0
142
1.0
142
0.0
142
0.0
142
0.0
142
0.0
142
1.0
179
     0
144
0.0208333333333333
144
0.0
144
0.0
144
0.0
144
0.0
144
0.0208333333333333
144
0.0
144
0.0
144
0.0
144
0.0
144
1.0
144
0.0
144
0.0
144
0.0
144
0.0
144
1.0
147
0.0208333333333333
147
0.0
147
0.0
147
0.0
147
0.0
147
0.0208333333333333
147
0.0
147
0.0
147
0.0
147
0.0
147
1.0
147
0.0
147
0.0
147
0.0
147
0.0
147
1.0
  0
MATERIAL
  5
2F47
102
{ACAD_XDICTIONARY
360
2F48
102
}
102
{ACAD_REACTORS
330
2F36
102
}
330
2F36
100
AcDbMaterial
  1
Global
 72
     0
 43
0.0208333333333333
 43
0.0
 43
0.0
 43
0.0
 43
0.0
 43
0.0208333333333333
 43
0.0
 43
0.0
 43
0.0
 43
0.0
 43
1.0
 43
0.0
 43
0.0
 43
0.0
 43
0.0
 43
1.0
 77
     0
 47
0.0208333333333333
 47
0.0
 47
0.0
 47
0.0
 47
0.0
 47
0.0208333333333333
 47
0.0
 47
0.0
 47
0.0
 47
0.0
 47
1.0
 47
0.0
 47
0.0
 47
0.0
 47
0.0
 47
1.0
171
     0
 49
0.0208333333333333
 49
0.0
 49
0.0
 49
0.0
 49
0.0
 49
0.0208333333333333
 49
0.0
 49
0.0
 49
0.0
 49
0.0
 49
1.0
 49
0.0
 49
0.0
 49
0.0
 49
0.0
 49
1.0
175
     0
142
0.0208333333333333
142
0.0
142
0.0
142
0.0
142
0.0
142
0.0208333333333333
142
0.0
142
0.0
142
0.0
142
0.0
142
1.0
142
0.0
142
0.0
142
0.0
142
0.0
142
1.0
179
     0
144
0.0208333333333333
144
0.0
144
0.0
144
0.0
144
0.0
144
0.0208333333333333
144
0.0
144
0.0
144
0.0
144
0.0
144
1.0
144
0.0
144
0.0
144
0.0
144
0.0
144
1.0
147
0.0208333333333333
147
0.0
147
0.0
147
0.0
147
0.0
147
0.0208333333333333
147
0.0
147
0.0
147
0.0
147
0.0
147
1.0
147
0.0
147
0.0
147
0.0
147
0.0
147
1.0
  0
MLEADERSTYLE
  5
2F86
102
{ACAD_REACTORS
330
2F85
102
}
330
2F85
100
AcDbMLeaderStyle
170
     2
171
     1
172
     0
 90
        2
 40
0.0
 41
0.0
173
     1
 91
-1056964608
340
557
 92
       -2
290
     1
 42
0.09
291
     1
 43
0.36
  3
Standard
 44
0.18
300

342
555
174
     1
178
     6
175
     1
176
     0
 93
-1056964608
 45
0.18
292
     0
297
     0
 46
0.18
 94
-1056964608
 47
1.0
 49
1.0
140
1.0
293
     1
141
0.0
294
     1
177
     0
142
1.0
295
     0
296
     0
143
0.125
1001
ACAD_MLEADERVER
1070
     2
  0
MLINESTYLE
  5
563
102
{ACAD_REACTORS
330
561
102
}
330
561
100
AcDbMlineStyle
  2
STANDARD
 70
     0
  3

 62
   256
 51
90.0
 52
90.0
 71
     2
 49
0.5
 62
   256
  6
BYLAYER
 49
-0.5
 62
   256
  6
BYLAYER
  0
ACDBPLACEHOLDER
  5
58B
102
{ACAD_REACTORS
330
58A
102
}
330
58A
  0
SCALE
  5
2F64
102
{ACAD_REACTORS
330
2F63
102
}
330
2F63
100
AcDbScale
 70
     0
300
1:1
140
1.0
141
1.0
290
     1
  0
SCALE
  5
2F65
102
{ACAD_REACTORS
330
2F63
102
}
330
2F63
100
AcDbScale
 70
     0
300
1:2
140
1.0
141
2.0
290
     0
  0
SCALE
  5
2F66
102
{ACAD_REACTORS
330
2F63
102
}
330
2F63
100
AcDbScale
 70
     0
300
1:4
140
1.0
141
4.0
290
     0
  0
SCALE
  5
2F67
102
{ACAD_REACTORS
330
2F63
102
}
330
2F63
100
AcDbScale
 70
     0
300
1:5
140
1.0
141
5.0
290
     0
  0
SCALE
  5
2F68
102
{ACAD_REACTORS
330
2F63
102
}
330
2F63
100
AcDbScale
 70
     0
300
1:8
140
1.0
141
8.0
290
     0
  0
SCALE
  5
2F69
102
{ACAD_REACTORS
330
2F63
102
}
330
2F63
100
AcDbScale
 70
     0
300
1:10
140
1.0
141
10.0
290
     0
  0
SCALE
  5
2F6A
102
{ACAD_REACTORS
330
2F63
102
}
330
2F63
100
AcDbScale
 70
     0
300
1:16
140
1.0
141
16.0
290
     0
  0
SCALE
  5
2F6B
102
{ACAD_REACTORS
330
2F63
102
}
330
2F63
100
AcDbScale
 70
     0
300
1:20
140
1.0
141
20.0
290
     0
  0
SCALE
  5
2F6C
102
{ACAD_REACTORS
330
2F63
102
}
330
2F63
100
AcDbScale
 70
     0
300
1:30
140
1.0
141
30.0
290
     0
  0
SCALE
  5
2F6D
102
{ACAD_REACTORS
330
2F63
102
}
330
2F63
100
AcDbScale
 70
     0
300
1:40
140
1.0
141
40.0
290
     0
  0
SCALE
  5
2F6E
102
{ACAD_REACTORS
330
2F63
102
}
330
2F63
100
AcDbScale
 70
     0
300
1:50
140
1.0
141
50.0
290
     0
  0
SCALE
  5
2F6F
102
{ACAD_REACTORS
330
2F63
102
}
330
2F63
100
AcDbScale
 70
     0
300
1:100
140
1.0
141
100.0
290
     0
  0
SCALE
  5
2F70
102
{ACAD_REACTORS
330
2F63
102
}
330
2F63
100
AcDbScale
 70
     0
300
2:1
140
2.0
141
1.0
290
     0
  0
SCALE
  5
2F71
102
{ACAD_REACTORS
330
2F63
102
}
330
2F63
100
AcDbScale
 70
     0
300
4:1
140
4.0
141
1.0
290
     0
  0
SCALE
  5
2F72
102
{ACAD_REACTORS
330
2F63
102
}
330
2F63
100
AcDbScale
 70
     0
300
8:1
140
8.0
141
1.0
290
     0
  0
SCALE
  5
2F73
102
{ACAD_REACTORS
330
2F63
102
}
330
2F63
100
AcDbScale
 70
     0
300
10:1
140
10.0
141
1.0
290
     0
  0
SCALE
  5
2F74
102
{ACAD_REACTORS
330
2F63
102
}
330
2F63
100
AcDbScale
 70
     0
300
100:1
140
100.0
141
1.0
290
     0
  0
SCALE
  5
2F75
102
{ACAD_REACTORS
330
2F63
102
}
330
2F63
100
AcDbScale
 70
     0
300
1/128" = 1'-0"
140
0.0078125
141
12.0
290
     0
  0
SCALE
  5
2F76
102
{ACAD_REACTORS
330
2F63
102
}
330
2F63
100
AcDbScale
 70
     0
300
1/64" = 1'-0"
140
0.015625
141
12.0
290
     0
  0
SCALE
  5
2F77
102
{ACAD_REACTORS
330
2F63
102
}
330
2F63
100
AcDbScale
 70
     0
300
1/32" = 1'-0"
140
0.03125
141
12.0
290
     0
  0
SCALE
  5
2F78
102
{ACAD_REACTORS
330
2F63
102
}
330
2F63
100
AcDbScale
 70
     0
300
1/16" = 1'-0"
140
0.0625
141
12.0
290
     0
  0
SCALE
  5
2F79
102
{ACAD_REACTORS
330
2F63
102
}
330
2F63
100
AcDbScale
 70
     0
300
3/32" = 1'-0"
140
0.09375
141
12.0
290
     0
  0
SCALE
  5
2F7A
102
{ACAD_REACTORS
330
2F63
102
}
330
2F63
100
AcDbScale
 70
     0
300
1/8" = 1'-0"
140
0.125
141
12.0
290
     0
  0
SCALE
  5
2F7B
102
{ACAD_REACTORS
330
2F63
102
}
330
2F63
100
AcDbScale
 70
     0
300
3/16" = 1'-0"
140
0.1875
141
12.0
290
     0
  0
SCALE
  5
2F7C
102
{ACAD_REACTORS
330
2F63
102
}
330
2F63
100
AcDbScale
 70
     0
300
1/4" = 1'-0"
140
0.25
141
12.0
290
     0
  0
SCALE
  5
2F7D
102
{ACAD_REACTORS
330
2F63
102
}
330
2F63
100
AcDbScale
 70
     0
300
3/8" = 1'-0"
140
0.375
141
12.0
290
     0
  0
SCALE
  5
2F7E
102
{ACAD_REACTORS
330
2F63
102
}
330
2F63
100
AcDbScale
 70
     0
300
1/2" = 1'-0"
140
0.5
141
12.0
290
     0
  0
SCALE
  5
2F7F
102
{ACAD_REACTORS
330
2F63
102
}
330
2F63
100
AcDbScale
 70
     0
300
3/4" = 1'-0"
140
0.75
141
12.0
290
     0
  0
SCALE
  5
2F80
102
{ACAD_REACTORS
330
2F63
102
}
330
2F63
100
AcDbScale
 70
     0
300
1" = 1'-0"
140
1.0
141
12.0
290
     0
  0
SCALE
  5
2F81
102
{ACAD_REACTORS
330
2F63
102
}
330
2F63
100
AcDbScale
 70
     0
300
1-1/2" = 1'-0"
140
1.5
141
12.0
290
     0
  0
SCALE
  5
2F82
102
{ACAD_REACTORS
330
2F63
102
}
330
2F63
100
AcDbScale
 70
     0
300
3" = 1'-0"
140
3.0
141
12.0
290
     0
  0
SCALE
  5
2F83
102
{ACAD_REACTORS
330
2F63
102
}
330
2F63
100
AcDbScale
 70
     0
300
6" = 1'-0"
140
6.0
141
12.0
290
     0
  0
SCALE
  5
2F84
102
{ACAD_REACTORS
330
2F63
102
}
330
2F63
100
AcDbScale
 70
     0
300
1'-0" = 1'-0"
140
12.0
141
12.0
290
     0
  0
ACDBSECTIONVIEWSTYLE
  5
907D
102
{ACAD_REACTORS
330
907B
102
}
330
907B
100
AcDbModelDocViewStyle
 70
     0
  3
Imperial24
290
     0
100
AcDbSectionViewStyle
 70
     0
 71
     0
 90
       78
 71
     1
340
555
 62
   256
 40
0.24
340
0
340
0
 62
   256
 40
0.24
300
I, O, Q, S, X, Z
 40
0.48
 90
        3
 40
0.18
 90
        1
 71
     2
340
907C
 90
       25
 62
   256
340
5
 90
       50
 62
   256
 40
0.24
 40
0.0
 40
0.24
 71
     3
340
555
 62
   256
 40
0.24
 90
        1
 40
0.75
 90
        1
300
%<\AcVar ViewType \f "%tc1">% %<\AcVar ViewSectionStartId>%-%<\AcVar ViewSectionEndId>%\PSCALE %<\AcVar ViewScale \f "%sn">%
 71
     4
 62
   256
 62
   257
300
ANSI31
 40
1.0
 90
        0
290
     0
290
     0
 90
        6
 40
0.0
 40
1.570796326794896
 40
0.2617993877991494
 40
1.308996938995747
 40
-0.2617993877991494
 40
1.832595714594046
  0
TABLESTYLE
  5
2F62
102
{ACAD_XDICTIONARY
360
2FC0
102
}
102
{ACAD_REACTORS
330
2F61
102
}
330
2F61
100
AcDbTableStyle
  3
Standard
 70
     0
 71
     0
 40
0.06
 41
0.06
280
     0
281
     0
  7
STANDARD
140
0.18
170
     2
 62
     0
 63
     7
283
     0
274
    -2
284
     1
 64
     0
275
    -2
285
     1
 65
     0
276
    -2
286
     1
 66
     0
277
    -2
287
     1
 67
     0
278
    -2
288
     1
 68
     0
279
    -2
289
     1
 69
     0
  7
STANDARD
140
0.25
170
     5
 62
     0
 63
     7
283
     0
274
    -2
284
     1
 64
     0
275
    -2
285
     1
 65
     0
276
    -2
286
     1
 66
     0
277
    -2
287
     1
 67
     0
278
    -2
288
     1
 68
     0
279
    -2
289
     1
 69
     0
  7
STANDARD
140
0.18
170
     5
 62
     0
 63
     7
283
     0
274
    -2
284
     1
 64
     0
275
    -2
285
     1
 65
     0
276
    -2
286
     1
 66
     0
277
    -2
287
     1
 67
     0
278
    -2
288
     1
 68
     0
279
    -2
289
     1
 69
     0
  0
VISUALSTYLE
  5
2F55
102
{ACAD_XDICTIONARY
360
9578
102
}
102
{ACAD_REACTORS
330
2F4F
102
}
330
2F4F
100
AcDbVisualStyle
  2
2dWireframe
 70
     4
 71
     0
 72
     2
 73
     0
 90
        0
 40
-0.6
 41
-30.0
 62
     5
 63
     7
421
 16777215
 74
     1
 91
        4
 64
     7
 65
   257
 75
     1
175
     1
 42
1.0
 92
        0
 66
   257
 43
1.0
 76
     1
 77
     6
 78
     2
 67
     7
 79
     5
170
     0
171
     0
290
     0
174
     0
 93
        1
 44
0.0
173
     0
291
     0
 45
0.0
1001
ACAD
1000
AcDbSavedByObjectVersion
1070
     0
  0
VISUALSTYLE
  5
2F57
102
{ACAD_XDICTIONARY
360
957C
102
}
102
{ACAD_REACTORS
330
2F4F
102
}
330
2F4F
100
AcDbVisualStyle
  2
3D Hidden
 70
     6
 71
     1
 72
     2
 73
     2
 90
        0
 40
-0.6
 41
-30.0
 62
     5
 63
     7
421
 16777215
 74
     2
 91
        2
 64
     7
 65
   257
 75
     2
175
     1
 42
40.0
 92
        0
 66
   257
 43
1.0
 76
     1
 77
     6
 78
     2
 67
     7
 79
     3
170
     0
171
     0
290
     0
174
     0
 93
        1
 44
0.0
173
     0
291
     0
 45
0.0
1001
ACAD
1000
AcDbSavedByObjectVersion
1070
     0
  0
VISUALSTYLE
  5
2F56
102
{ACAD_XDICTIONARY
360
957A
102
}
102
{ACAD_REACTORS
330
2F4F
102
}
330
2F4F
100
AcDbVisualStyle
  2
3dWireframe
 70
     5
 71
     0
 72
     2
 73
     0
 90
        0
 40
-0.6
 41
-30.0
 62
     5
 63
     7
421
 16777215
 74
     1
 91
        4
 64
     7
 65
   257
 75
     1
175
     1
 42
1.0
 92
        0
 66
   257
 43
1.0
 76
     1
 77
     6
 78
     2
 67
     7
 79
     5
170
     0
171
     0
290
     0
174
     0
 93
        1
 44
0.0
173
     0
291
     0
 45
0.0
1001
ACAD
1000
AcDbSavedByObjectVersion
1070
     0
  0
VISUALSTYLE
  5
2F54
102
{ACAD_XDICTIONARY
360
9576
102
}
102
{ACAD_REACTORS
330
2F4F
102
}
330
2F4F
100
AcDbVisualStyle
  2
Basic
 70
     7
 71
     1
 72
     0
 73
     1
 90
        0
 40
-0.6
 41
-30.0
 62
     5
 63
     7
421
 16777215
 74
     0
 91
        4
 64
     7
 65
   257
 75
     1
175
     1
 42
1.0
 92
        8
 66
     7
 43
1.0
 76
     1
 77
     6
 78
     2
 67
     7
 79
     5
170
     0
171
     0
290
     0
174
     0
 93
        1
 44
0.0
173
     0
291
     1
 45
0.0
1001
ACAD
1000
AcDbSavedByObjectVersion
1070
     0
  0
VISUALSTYLE
  5
2F5B
102
{ACAD_XDICTIONARY
360
9584
102
}
102
{ACAD_REACTORS
330
2F4F
102
}
330
2F4F
100
AcDbVisualStyle
  2
Brighten
 70
    12
 71
     2
 72
     2
 73
     0
 90
        0
 40
-0.6
 41
-30.0
 62
     5
 63
     7
421
 16777215
 74
     1
 91
        4
 64
     7
 65
   257
 75
     1
175
     1
 42
1.0
 92
        8
 66
     7
 43
1.0
 76
     1
 77
     6
 78
     2
 67
     7
 79
     5
170
     0
171
     0
290
     0
174
     0
 93
        1
 44
50.0
173
     0
291
     1
 45
0.0
1001
ACAD
1000
AcDbSavedByObjectVersion
1070
     0
  0
VISUALSTYLE
  5
2F5F
102
{ACAD_XDICTIONARY
360
958C
102
}
102
{ACAD_REACTORS
330
2F4F
102
}
330
2F4F
100
AcDbVisualStyle
  2
ColorChange
 70
    16
 71
     2
 72
     2
 73
     3
 90
        0
 40
-0.6
 41
-30.0
 62
     5
 63
     8
421
  8421504
 74
     1
 91
        4
 64
     7
 65
   257
 75
     1
175
     1
 42
1.0
 92
        8
 66
     8
424
  8421504
 43
1.0
 76
     1
 77
     6
 78
     2
 67
     7
 79
     5
170
     0
171
     0
290
     0
174
     0
 93
        1
 44
0.0
173
     0
291
     1
 45
0.0
1001
ACAD
1000
AcDbSavedByObjectVersion
1070
     0
  0
VISUALSTYLE
  5
2F58
102
{ACAD_XDICTIONARY
360
957E
102
}
102
{ACAD_REACTORS
330
2F4F
102
}
330
2F4F
100
AcDbVisualStyle
  2
Conceptual
 70
     9
 71
     3
 72
     2
 73
     0
 90
        0
 40
-0.6
 41
-30.0
 62
     5
 63
     7
421
 16777215
 74
     2
 91
        2
 64
     7
 65
   257
 75
     1
175
     1
 42
40.0
 92
        8
 66
     7
 43
1.0
 76
     1
 77
     6
 78
     2
 67
     7
 79
     3
170
     0
171
     0
290
     0
174
     0
 93
        1
 44
0.0
173
     0
291
     0
 45
0.0
1001
ACAD
1000
AcDbSavedByObjectVersion
1070
     0
  0
VISUALSTYLE
  5
2F5A
102
{ACAD_XDICTIONARY
360
9582
102
}
102
{ACAD_REACTORS
330
2F4F
102
}
330
2F4F
100
AcDbVisualStyle
  2
Dim
 70
    11
 71
     2
 72
     2
 73
     0
 90
        0
 40
-0.6
 41
-30.0
 62
     5
 63
     7
421
 16777215
 74
     1
 91
        4
 64
     7
 65
   257
 75
     1
175
     1
 42
1.0
 92
        8
 66
     7
 43
1.0
 76
     1
 77
     6
 78
     2
 67
     7
 79
     5
170
     0
171
     0
290
     0
174
     0
 93
        1
 44
-50.0
173
     0
291
     1
 45
0.0
1001
ACAD
1000
AcDbSavedByObjectVersion
1070
     0
  0
VISUALSTYLE
  5
907A
102
{ACAD_XDICTIONARY
360
95A1
102
}
102
{ACAD_REACTORS
330
2F4F
102
}
330
2F4F
100
AcDbVisualStyle
  2
EdgeColorOff
 70
    22
 71
     2
 72
     2
 73
     0
 90
        0
 40
-0.6
 41
-30.0
 62
     5
 63
     7
421
 16777215
 74
     1
 91
        4
 64
     7
 65
   257
 75
     1
175
     1
 42
1.0
 92
        8
 66
     7
 43
1.0
 76
     1
 77
     6
 78
     2
 67
     7
 79
     5
170
     0
171
     0
290
     0
174
     0
 93
        1
 44
0.0
173
     0
291
     1
 45
0.0
1001
ACAD
1000
AcDbSavedByObjectVersion
1070
     0
  0
VISUALSTYLE
  5
2F5E
102
{ACAD_XDICTIONARY
360
958A
102
}
102
{ACAD_REACTORS
330
2F4F
102
}
330
2F4F
100
AcDbVisualStyle
  2
Facepattern
 70
    15
 71
     2
 72
     2
 73
     0
 90
        0
 40
-0.6
 41
-30.0
 62
     5
 63
     7
421
 16777215
 74
     1
 91
        4
 64
     7
 65
   257
 75
     1
175
     1
 42
1.0
 92
        8
 66
     7
 43
1.0
 76
     1
 77
     6
 78
     2
 67
     7
 79
     5
170
     0
171
     0
290
     0
174
     0
 93
        1
 44
0.0
173
     0
291
     1
 45
0.0
1001
ACAD
1000
AcDbSavedByObjectVersion
1070
     0
  0
VISUALSTYLE
  5
2F50
102
{ACAD_XDICTIONARY
360
956E
102
}
102
{ACAD_REACTORS
330
2F4F
102
}
330
2F4F
100
AcDbVisualStyle
  2
Flat
 70
     0
 71
     2
 72
     1
 73
     1
 90
        2
 40
-0.6
 41
30.0
 62
     5
 63
     7
421
 16777215
 74
     0
 91
        4
 64
     7
 65
   257
 75
     1
175
     1
 42
1.0
 92
        8
 66
     7
 43
1.0
 76
     1
 77
     6
 78
     2
 67
     7
 79
     5
170
     0
171
     0
290
     0
174
     0
 93
       13
 44
0.0
173
     0
291
     1
 45
0.0
1001
ACAD
1000
AcDbSavedByObjectVersion
1070
     0
  0
VISUALSTYLE
  5
2F51
102
{ACAD_XDICTIONARY
360
9570
102
}
102
{ACAD_REACTORS
330
2F4F
102
}
330
2F4F
100
AcDbVisualStyle
  2
FlatWithEdges
 70
     1
 71
     2
 72
     1
 73
     1
 90
        2
 40
-0.6
 41
30.0
 62
     5
 63
     7
421
 16777215
 74
     1
 91
        4
 64
     7
 65
   257
 75
     1
175
     1
 42
1.0
 92
        0
 66
   257
 43
1.0
 76
     1
 77
     6
 78
     2
 67
     7
 79
     5
170
     0
171
     0
290
     0
174
     0
 93
       13
 44
0.0
173
     0
291
     1
 45
0.0
1001
ACAD
1000
AcDbSavedByObjectVersion
1070
     0
  0
VISUALSTYLE
  5
2F52
102
{ACAD_XDICTIONARY
360
9572
102
}
102
{ACAD_REACTORS
330
2F4F
102
}
330
2F4F
100
AcDbVisualStyle
  2
Gouraud
 70
     2
 71
     2
 72
     2
 73
     1
 90
        2
 40
-0.6
 41
30.0
 62
     5
 63
     7
421
 16777215
 74
     0
 91
        4
 64
     7
 65
   257
 75
     1
175
     1
 42
1.0
 92
        0
 66
     7
 43
1.0
 76
     1
 77
     6
 78
     2
 67
     7
 79
     5
170
     0
171
     0
290
     0
174
     0
 93
       13
 44
0.0
173
     0
291
     1
 45
0.0
1001
ACAD
1000
AcDbSavedByObjectVersion
1070
     0
  0
VISUALSTYLE
  5
2F53
102
{ACAD_XDICTIONARY
360
9574
102
}
102
{ACAD_REACTORS
330
2F4F
102
}
330
2F4F
100
AcDbVisualStyle
  2
GouraudWithEdges
 70
     3
 71
     2
 72
     2
 73
     1
 90
        2
 40
-0.6
 41
30.0
 62
     5
 63
     7
421
 16777215
 74
     1
 91
        4
 64
     7
 65
   257
 75
     1
175
     1
 42
1.0
 92
        0
 66
   257
 43
1.0
 76
     1
 77
     6
 78
     2
 67
     7
 79
     5
170
     0
171
     0
290
     0
174
     0
 93
       13
 44
0.0
173
     0
291
     1
 45
0.0
1001
ACAD
1000
AcDbSavedByObjectVersion
1070
     0
  0
VISUALSTYLE
  5
9072
102
{ACAD_XDICTIONARY
360
9591
102
}
102
{ACAD_REACTORS
330
2F4F
102
}
330
2F4F
100
AcDbVisualStyle
  2
Hidden
 70
     6
 71
     1
 72
     2
 73
     2
 90
        0
 40
-0.6
 41
-30.0
 62
     5
 63
     7
421
 16777215
 74
     2
 91
        2
 64
     7
 65
   257
 75
     2
175
     1
 42
40.0
 92
        0
 66
   257
 43
1.0
 76
     1
 77
     6
 78
     2
 67
     7
 79
     3
170
     0
171
     0
290
     0
174
     0
 93
        1
 44
0.0
173
     0
291
     0
 45
0.0
1001
ACAD
1000
AcDbSavedByObjectVersion
1070
     0
  0
VISUALSTYLE
  5
9078
102
{ACAD_XDICTIONARY
360
959D
102
}
102
{ACAD_REACTORS
330
2F4F
102
}
330
2F4F
100
AcDbVisualStyle
  2
JitterOff
 70
    20
 71
     2
 72
     2
 73
     0
 90
        0
 40
-0.6
 41
-30.0
 62
     5
 63
     7
421
 16777215
 74
     1
 91
        4
 64
     7
 65
   257
 75
     1
175
     1
 42
1.0
 92
       10
 66
     7
 43
1.0
 76
     1
 77
     6
 78
     2
 67
     7
 79
     5
170
     0
171
     0
290
     0
174
     0
 93
        1
 44
0.0
173
     0
291
     1
 45
0.0
1001
ACAD
1000
AcDbSavedByObjectVersion
1070
     0
  0
VISUALSTYLE
  5
2F5D
102
{ACAD_XDICTIONARY
360
9588
102
}
102
{ACAD_REACTORS
330
2F4F
102
}
330
2F4F
100
AcDbVisualStyle
  2
Linepattern
 70
    14
 71
     2
 72
     2
 73
     0
 90
        0
 40
-0.6
 41
-30.0
 62
     5
 63
     7
421
 16777215
 74
     1
 91
        4
 64
     7
 65
   257
 75
     7
175
     7
 42
1.0
 92
        8
 66
     7
 43
1.0
 76
     1
 77
     6
 78
     2
 67
     7
 79
     5
170
     0
171
     0
290
     0
174
     0
 93
        1
 44
0.0
173
     0
291
     1
 45
0.0
1001
ACAD
1000
AcDbSavedByObjectVersion
1070
     0
  0
VISUALSTYLE
  5
9079
102
{ACAD_XDICTIONARY
360
959F
102
}
102
{ACAD_REACTORS
330
2F4F
102
}
330
2F4F
100
AcDbVisualStyle
  2
OverhangOff
 70
    21
 71
     2
 72
     2
 73
     0
 90
        0
 40
-0.6
 41
-30.0
 62
     5
 63
     7
421
 16777215
 74
     1
 91
        4
 64
     7
 65
   257
 75
     1
175
     1
 42
1.0
 92
        9
 66
     7
 43
1.0
 76
     1
 77
     6
 78
     2
 67
     7
 79
     5
170
     0
171
     0
290
     0
174
     0
 93
        1
 44
0.0
173
     0
291
     1
 45
0.0
1001
ACAD
1000
AcDbSavedByObjectVersion
1070
     0
  0
VISUALSTYLE
  5
2F59
102
{ACAD_XDICTIONARY
360
9580
102
}
102
{ACAD_REACTORS
330
2F4F
102
}
330
2F4F
100
AcDbVisualStyle
  2
Realistic
 70
     8
 71
     2
 72
     2
 73
     0
 90
        0
 40
-0.6
 41
-30.0
 62
     5
 63
     7
421
 16777215
 74
     1
 91
        0
 64
     7
 65
   257
 75
     1
175
     1
 42
1.0
 92
        8
 66
     8
424
  7895160
 43
1.0
 76
     1
 77
     6
 78
     2
 67
     7
 79
     5
170
     0
171
     0
290
     0
174
     0
 93
       13
 44
0.0
173
     0
291
     0
 45
0.0
1001
ACAD
1000
AcDbSavedByObjectVersion
1070
     0
  0
VISUALSTYLE
  5
9077
102
{ACAD_XDICTIONARY
360
959B
102
}
102
{ACAD_REACTORS
330
2F4F
102
}
330
2F4F
100
AcDbVisualStyle
  2
Shaded
 70
    27
 71
     2
 72
     2
 73
     1
 90
        2
 40
-0.6
 41
30.0
 62
     5
 63
     7
421
 16777215
 74
     0
 91
        4
 64
     7
 65
   257
 75
     1
175
     1
 42
1.0
 92
        8
 66
   257
 43
1.0
 76
     1
 77
     6
 78
     2
 67
     8
425
  7895160
 79
     3
170
     0
171
     0
290
     0
174
     0
 93
        5
 44
0.0
173
     0
291
     0
 45
0.0
1001
ACAD
1000
AcDbSavedByObjectVersion
1070
     0
  0
VISUALSTYLE
  5
9076
102
{ACAD_XDICTIONARY
360
9599
102
}
102
{ACAD_REACTORS
330
2F4F
102
}
330
2F4F
100
AcDbVisualStyle
  2
Shaded with edges
 70
    26
 71
     2
 72
     2
 73
     1
 90
        2
 40
-0.6
 41
30.0
 62
     5
 63
     7
421
 16777215
 74
     1
 91
       10
 64
     7
 65
   257
 75
     2
175
     1
 42
1.0
 92
        8
 66
   257
 43
1.0
 76
     1
 77
     6
 78
     2
 67
     7
 79
     3
170
     0
171
     0
290
     0
174
     0
 93
        5
 44
0.0
173
     0
291
     0
 45
0.0
1001
ACAD
1000
AcDbSavedByObjectVersion
1070
     0
  0
VISUALSTYLE
  5
9073
102
{ACAD_XDICTIONARY
360
9593
102
}
102
{ACAD_REACTORS
330
2F4F
102
}
330
2F4F
100
AcDbVisualStyle
  2
Shades of Gray
 70
    23
 71
     2
 72
     2
 73
     3
 90
        0
 40
-0.6
 41
-30.0
 62
     5
 63
     7
421
 16777215
 74
     2
 91
        2
 64
     7
 65
     7
 75
     1
175
     1
 42
40.0
 92
        8
 66
     7
 43
1.0
 76
     1
 77
     6
 78
     2
 67
     7
 79
     3
170
     0
171
     0
290
     0
174
     0
 93
        1
 44
0.0
173
     0
291
     0
 45
0.0
1001
ACAD
1000
AcDbSavedByObjectVersion
1070
     0
  0
VISUALSTYLE
  5
9074
102
{ACAD_XDICTIONARY
360
9595
102
}
102
{ACAD_REACTORS
330
2F4F
102
}
330
2F4F
100
AcDbVisualStyle
  2
Sketchy
 70
    24
 71
     1
 72
     2
 73
     2
 90
        0
 40
-0.6
 41
-30.0
 62
     5
 63
     7
421
 16777215
 74
     2
 91
        2
 64
     7
 65
     7
 75
     1
175
     1
 42
40.0
 92
       11
 66
     7
 43
1.0
 76
     1
 77
     6
 78
     2
 67
     7
 79
     6
170
     0
171
     0
290
     0
174
     0
 93
        1
 44
0.0
173
     0
291
     0
 45
0.0
1001
ACAD
1000
AcDbSavedByObjectVersion
1070
     0
  0
VISUALSTYLE
  5
2F5C
102
{ACAD_XDICTIONARY
360
9586
102
}
102
{ACAD_REACTORS
330
2F4F
102
}
330
2F4F
100
AcDbVisualStyle
  2
Thicken
 70
    13
 71
     2
 72
     2
 73
     0
 90
        0
 40
-0.6
 41
-30.0
 62
     5
 63
     7
421
 16777215
 74
     1
 91
        4
 64
     7
 65
   257
 75
     1
175
     1
 42
1.0
 92
       12
 66
     7
 43
1.0
 76
     1
 77
     6
 78
     2
 67
     7
 79
     5
170
     0
171
     0
290
     0
174
     0
 93
        1
 44
0.0
173
     0
291
     1
 45
0.0
1001
ACAD
1000
AcDbSavedByObjectVersion
1070
     0
  0
VISUALSTYLE
  5
9071
102
{ACAD_XDICTIONARY
360
958F
102
}
102
{ACAD_REACTORS
330
2F4F
102
}
330
2F4F
100
AcDbVisualStyle
  2
Wireframe
 70
     5
 71
     0
 72
     2
 73
     0
 90
        0
 40
-0.6
 41
-30.0
 62
     5
 63
     7
421
 16777215
 74
     1
 91
        4
 64
     7
 65
   257
 75
     1
175
     1
 42
1.0
 92
        0
 66
   257
 43
1.0
 76
     1
 77
     6
 78
     2
 67
     7
 79
     3
170
     0
171
     0
290
     0
174
     0
 93
        1
 44
0.0
173
     0
291
     0
 45
0.0
1001
ACAD
1000
AcDbSavedByObjectVersion
1070
     0
  0
VISUALSTYLE
  5
9075
102
{ACAD_XDICTIONARY
360
9597
102
}
102
{ACAD_REACTORS
330
2F4F
102
}
330
2F4F
100
AcDbVisualStyle
  2
X-Ray
 70
    25
 71
     2
 72
     2
 73
     1
 90
        1
 40
0.5
 41
-30.0
 62
     5
 63
     7
421
 16777215
 74
     1
 91
        0
 64
     7
 65
   257
 75
     1
175
     1
 42
1.0
 92
        8
 66
     7
 43
1.0
 76
     1
 77
     6
 78
     2
 67
     7
 79
     3
170
     0
171
     0
290
     0
174
     0
 93
       13
 44
0.0
173
     0
291
     0
 45
0.0
1001
ACAD
1000
AcDbSavedByObjectVersion
1070
     0
  0
DICTIONARYVAR
  5
2FD3
102
{ACAD_REACTORS
330
599
102
}
330
599
100
DictionaryVariables
280
     0
  1
1:1
  0
DICTIONARYVAR
  5
2FD2
102
{ACAD_REACTORS
330
599
102
}
330
599
100
DictionaryVariables
280
     0
  1
STANDARD
  0
DICTIONARYVAR
  5
2FD1
102
{ACAD_REACTORS
330
599
102
}
330
599
100
DictionaryVariables
280
     0
  1
STANDARD
  0
DICTIONARYVAR
  5
9190
102
{ACAD_REACTORS
330
599
102
}
330
599
100
DictionaryVariables
280
     0
  1
Imperial24
  0
DICTIONARYVAR
  5
9191
102
{ACAD_REACTORS
330
599
102
}
330
599
100
DictionaryVariables
280
     0
  1
Imperial24
  0
DICTIONARYVAR
  5
59A
102
{ACAD_REACTORS
330
599
102
}
330
599
100
DictionaryVariables
280
     0
  1
2
  0
DICTIONARY
  5
956A
102
{ACAD_REACTORS
330
9568
102
}
330
9568
100
AcDbDictionary
281
     1
  0
DICTIONARY
  5
9569
102
{ACAD_REACTORS
330
9568
102
}
330
9568
100
AcDbDictionary
281
     1
  3
140700117185328
350
9563
  3
140700117185344
350
9564
  3
140700117185360
350
9565
  3
140700117185376
350
9566
  3
140700117185392
350
9567
  0
XRECORD
  5
598
102
{ACAD_REACTORS
330
596
102
}
330
596
100
AcDbXrecord
280
     1
330
0
330
0
330
0
  0
XRECORD
  5
2C67
102
{ACAD_REACTORS
330
2C66
102
}
330
2C66
100
AcDbXrecord
280
     1
  1
DIMENSION
  1
*DIM*
  1
*
  1
*
 70
     0
  1
*
  1
*
  0
XRECORD
  5
2C68
102
{ACAD_REACTORS
330
2C66
102
}
330
2C66
100
AcDbXrecord
280
     1
  1
HB_X
  1
HB_X*
  1
*
  1
*
 70
     0
  1
*
  1
*
  0
XRECORD
  5
35F7
102
{ACAD_XDICTIONARY
360
35F8
102
}
102
{ACAD_REACTORS
330
2FE7
102
}
330
2FE7
100
AcDbXrecord
280
     1
 91
     1023
301

290
     0
302
3
330
0
 90
        8
 62
     2
370
    -3
331
5
  1
Color_2
330
30A7
 90
        8
 62
     7
370
    -3
331
5
  1
Color_7
330
2FF8
 90
        8
 62
     7
370
    80
331
5
  1
Color_7
330
2FF6
 90
        8
 62
     2
370
    -3
331
5
  1
Color_2
330
2FEE
 90
        8
 62
     7
370
    -3
331
5
  1
Color_7
330
0
 90
        8
 62
     3
370
    -3
331
5
  1
Color_3
330
0
 90
        8
 62
     8
370
    -3
331
5
  1
Color_8
330
0
 90
        8
 62
     7
370
    -3
331
5
  1
Color_7
330
4
 90
        8
 62
     7
370
    -3
331
5
  1
Color_7
330
12
 90
        8
 62
     1
370
    -3
331
5
  1
Color_1
330
2F
 90
        0
 62
   210
370
    -3
331
5
  1
Color_210
330
24
 90
        8
 62
     7
370
    -3
331
5
  1
Color_7
  0
DICTIONARY
  5
2FEB
330
58F
100
AcDbDictionary
280
     1
281
     1
  3
ADSK_XREC_LAYOUTTHUMBNAIL
360
2FEC
  0
DICTIONARY
  5
2F40
330
2F3F
100
AcDbDictionary
280
     1
281
     1
  3
ACAD_XREC_ROUNDTRIP
360
956C
  3
BUMPTILE
360
2F42
  3
DIFFUSETILE
360
2F41
  3
OPACITYTILE
360
2F45
  3
REFLECTIONTILE
360
2F44
  3
REFRACTIONTILE
360
2F46
  3
SPECULARTILE
360
2F43
  0
DICTIONARY
  5
2F38
330
2F37
100
AcDbDictionary
280
     1
281
     1
  3
ACAD_XREC_ROUNDTRIP
360
956B
  3
BUMPTILE
360
2F3A
  3
DIFFUSETILE
360
2F39
  3
OPACITYTILE
360
2F3D
  3
REFLECTIONTILE
360
2F3C
  3
REFRACTIONTILE
360
2F3E
  3
SPECULARTILE
360
2F3B
  0
DICTIONARY
  5
2F48
330
2F47
100
AcDbDictionary
280
     1
281
     1
  3
ACAD_XREC_ROUNDTRIP
360
956D
  3
BUMPTILE
360
2F4A
  3
DIFFUSETILE
360
2F49
  3
OPACITYTILE
360
2F4D
  3
REFLECTIONTILE
360
2F4C
  3
REFRACTIONTILE
360
2F4E
  3
SPECULARTILE
360
2F4B
  0
DICTIONARY
  5
2FC0
330
2F62
100
AcDbDictionary
280
     1
281
     1
  3
ACAD_ROUNDTRIP_2008_TABLESTYLE_CELLSTYLEMAP
360
955C
  3
ACAD_XREC_ROUNDTRIP
360
958E
  0
DICTIONARY
  5
9578
330
2F55
100
AcDbDictionary
280
     1
281
     1
  3
ACAD_XREC_ROUNDTRIP
360
9579
  0
DICTIONARY
  5
957C
330
2F57
100
AcDbDictionary
280
     1
281
     1
  3
ACAD_XREC_ROUNDTRIP
360
957D
  0
DICTIONARY
  5
957A
330
2F56
100
AcDbDictionary
280
     1
281
     1
  3
ACAD_XREC_ROUNDTRIP
360
957B
  0
DICTIONARY
  5
9576
330
2F54
100
AcDbDictionary
280
     1
281
     1
  3
ACAD_XREC_ROUNDTRIP
360
9577
  0
DICTIONARY
  5
9584
330
2F5B
100
AcDbDictionary
280
     1
281
     1
  3
ACAD_XREC_ROUNDTRIP
360
9585
  0
DICTIONARY
  5
958C
330
2F5F
100
AcDbDictionary
280
     1
281
     1
  3
ACAD_XREC_ROUNDTRIP
360
958D
  0
DICTIONARY
  5
957E
330
2F58
100
AcDbDictionary
280
     1
281
     1
  3
ACAD_XREC_ROUNDTRIP
360
957F
  0
DICTIONARY
  5
9582
330
2F5A
100
AcDbDictionary
280
     1
281
     1
  3
ACAD_XREC_ROUNDTRIP
360
9583
  0
DICTIONARY
  5
95A1
330
907A
100
AcDbDictionary
280
     1
281
     1
  3
ACAD_XREC_ROUNDTRIP
360
95A2
  0
DICTIONARY
  5
958A
330
2F5E
100
AcDbDictionary
280
     1
281
     1
  3
ACAD_XREC_ROUNDTRIP
360
958B
  0
DICTIONARY
  5
956E
330
2F50
100
AcDbDictionary
280
     1
281
     1
  3
ACAD_XREC_ROUNDTRIP
360
956F
  0
DICTIONARY
  5
9570
330
2F51
100
AcDbDictionary
280
     1
281
     1
  3
ACAD_XREC_ROUNDTRIP
360
9571
  0
DICTIONARY
  5
9572
330
2F52
100
AcDbDictionary
280
     1
281
     1
  3
ACAD_XREC_ROUNDTRIP
360
9573
  0
DICTIONARY
  5
9574
330
2F53
100
AcDbDictionary
280
     1
281
     1
  3
ACAD_XREC_ROUNDTRIP
360
9575
  0
DICTIONARY
  5
9591
330
9072
100
AcDbDictionary
280
     1
281
     1
  3
ACAD_XREC_ROUNDTRIP
360
9592
  0
DICTIONARY
  5
959D
330
9078
100
AcDbDictionary
280
     1
281
     1
  3
ACAD_XREC_ROUNDTRIP
360
959E
  0
DICTIONARY
  5
9588
330
2F5D
100
AcDbDictionary
280
     1
281
     1
  3
ACAD_XREC_ROUNDTRIP
360
9589
  0
DICTIONARY
  5
959F
330
9079
100
AcDbDictionary
280
     1
281
     1
  3
ACAD_XREC_ROUNDTRIP
360
95A0
  0
DICTIONARY
  5
9580
330
2F59
100
AcDbDictionary
280
     1
281
     1
  3
ACAD_XREC_ROUNDTRIP
360
9581
  0
DICTIONARY
  5
959B
330
9077
100
AcDbDictionary
280
     1
281
     1
  3
ACAD_XREC_ROUNDTRIP
360
959C
  0
DICTIONARY
  5
9599
330
9076
100
AcDbDictionary
280
     1
281
     1
  3
ACAD_XREC_ROUNDTRIP
360
959A
  0
DICTIONARY
  5
9593
330
9073
100
AcDbDictionary
280
     1
281
     1
  3
ACAD_XREC_ROUNDTRIP
360
9594
  0
DICTIONARY
  5
9595
330
9074
100
AcDbDictionary
280
     1
281
     1
  3
ACAD_XREC_ROUNDTRIP
360
9596
  0
DICTIONARY
  5
9586
330
2F5C
100
AcDbDictionary
280
     1
281
     1
  3
ACAD_XREC_ROUNDTRIP
360
9587
  0
DICTIONARY
  5
958F
330
9071
100
AcDbDictionary
280
     1
281
     1
  3
ACAD_XREC_ROUNDTRIP
360
9590
  0
DICTIONARY
  5
9597
330
9075
100
AcDbDictionary
280
     1
281
     1
  3
ACAD_XREC_ROUNDTRIP
360
9598
  0
XRECORD
  5
9563
102
{ACAD_REACTORS
330
9569
102
}
330
9569
100
AcDbXrecord
280
     1
  1
AcDb_Thumbnail_Schema
102
{ATTRRECORD
341
9564
  2
AcDbDs::TreatedAsObjectData
280
     1
291
     1
102
ATTRRECORD}
102
{ATTRRECORD
341
9565
  2
AcDbDs::Legacy
280
     1
291
     1
102
ATTRRECORD}
  2
AcDbDs::ID
280
    10
 91
        8
102
{ATTRRECORD
341
9566
  2
AcDs:Indexable
280
     1
291
     1
102
ATTRRECORD}
102
{ATTRRECORD
341
9567
  2
AcDbDs::HandleAttribute
280
     7
282
     1
102
ATTRRECORD}
  2
Thumbnail_Data
280
    15
 91
        0
  0
XRECORD
  5
9564
102
{ACAD_REACTORS
330
9569
102
}
330
9569
100
AcDbXrecord
280
     1
  1
AcDbDs::TreatedAsObjectDataSchema
  2
AcDbDs::TreatedAsObjectData
280
     1
 91
        0
  0
XRECORD
  5
9565
102
{ACAD_REACTORS
330
9569
102
}
330
9569
100
AcDbXrecord
280
     1
  1
AcDbDs::LegacySchema
  2
AcDbDs::Legacy
280
     1
 91
        0
  0
XRECORD
  5
9566
102
{ACAD_REACTORS
330
9569
102
}
330
9569
100
AcDbXrecord
280
     1
  1
AcDbDs::IndexedPropertySchema
  2
AcDs:Indexable
280
     1
 91
        0
  0
XRECORD
  5
9567
102
{ACAD_REACTORS
330
9569
102
}
330
9569
100
AcDbXrecord
280
     1
  1
AcDbDs::HandleAttributeSchema
  2
AcDbDs::HandleAttribute
280
     7
 91
        1
284
     1
  0
DICTIONARY
  5
35F8
330
35F7
100
AcDbDictionary
280
     1
281
     1
  3
AcadLayerStateAnnoScale
360
35F9
  0
XRECORD
  5
2FEC
102
{ACAD_REACTORS
330
2FEB
102
}
330
2FEB
100
AcDbXrecord
280
     1
310
28000000680000008C0000000100080000000000E0380000010000000100000000010000000000004C00390000000000C8C8C8FF000000FF000000FF000000FF000000FF000000FF000000FF000000FF000000FF330000FF660000FF990000FFCC0000FFFF0000FF003300FF333300FF663300FF993300FFCC3300FFFF3300
310
FF006600FF336600FF666600FF996600FFCC6600FFFF6600FF009900FF339900FF669900FF999900FFCC9900FFFF9900FF00CC00FF33CC00FF66CC00FF99CC00FFCCCC00FFFFCC00FF00FF00FF33FF00FF66FF00FF99FF00FFCCFF00FFFFFF00FF000033FF330033FF660033FF990033FFCC0033FFFF0033FF003333FF3333
310
33FF663333FF993333FFCC3333FFFF3333FF006633FF336633FF666633FF996633FFCC6633FFFF6633FF009933FF339933FF669933FF999933FFCC9933FFFF9933FF00CC33FF33CC33FF66CC33FF99CC33FFCCCC33FFFFCC33FF00FF33FF33FF33FF66FF33FF99FF33FFCCFF33FFFFFF33FF000066FF330066FF660066FF99
310
0066FFCC0066FFFF0066FF003366FF333366FF663366FF993366FFCC3366FFFF3366FF006666FF336666FF666666FF996666FFCC6666FFFF6666FF009966FF339966FF669966FF999966FFCC9966FFFF9966FF00CC66FF33CC66FF66CC66FF99CC66FFCCCC66FFFFCC66FF00FF66FF33FF66FF66FF66FF99FF66FFCCFF66FF
310
FFFF66FF000099FF330099FF660099FF990099FFCC0099FFFF0099FF003399FF333399FF663399FF993399FFCC3399FFFF3399FF006699FF336699FF666699FF996699FFCC6699FFFF6699FF009999FF339999FF669999FF999999FFCC9999FFFF9999FF00CC99FF33CC99FF66CC99FF99CC99FFCCCC99FFFFCC99FF00FF99
310
FF33FF99FF66FF99FF99FF99FFCCFF99FFFFFF99FF0000CCFF3300CCFF6600CCFF9900CCFFCC00CCFFFF00CCFF0033CCFF3333CCFF6633CCFF9933CCFFCC33CCFFFF33CCFF0066CCFF3366CCFF6666CCFF9966CCFFCC66CCFFFF66CCFF0099CCFF3399CCFF6699CCFF9999CCFFCC99CCFFFF99CCFF00CCCCFF33CCCCFF66CC
310
CCFF99CCCCFFCCCCCCFFFFCCCCFF00FFCCFF33FFCCFF66FFCCFF99FFCCFFCCFFCCFFFFFFCCFF0000FFFF3300FFFF6600FFFF9900FFFFCC00FFFFFF00FFFF0033FFFF3333FFFF6633FFFF9933FFFFCC33FFFFFF33FFFF0066FFFF3366FFFF6666FFFF9966FFFFCC66FFFFFF66FFFF0099FFFF3399FFFF6699FFFF9999FFFFCC
310
99FFFFFF99FFFF00CCFFFF33CCFFFF66CCFFFF99CCFFFFCCCCFFFFFFCCFFFF00FFFFFF33FFFFFF66FFFFFF99FFFFFFCCFFFFFFFFFFFFFF000000FF0D0D0DFF1A1A1AFF282828FF353535FF434343FF505050FF5D5D5DFF6B6B6BFF787878FF868686FF939393FFA1A1A1FFAEAEAEFFBBBBBBFFC9C9C9FFD6D6D6FFE4E4E4FF
310
F1F1F1FFFFFFFFFF000000FF000000FF000000FF000000FF000000FF000000FF000000FF000000FF000000FF000000FF00000000000000000000000000000000000000000000000000000000000000000000000000000000000000000000000000000000000000000000000000000000000000000000000000000000000000
310
00000000000000000000000000000000000000000000000000000000000000000000000000000000000000000000000000000000000000000000000000000000000000000000000000000000000000000000000000000000000000000000000000000000000000000000000000000000000000000000000000000000000000
310
00000000000000000000000000000000000000000000000000000000000000000000000000000000000000000000000000000000000000000000000000000000000000000000000000000000000000000000000000000000000000000000000000000000000000000000000000000000000000000000000000000000000000
310
00000000000000000000000000000000000000000000000000000000000000000000000000000000000000000000000000000000000000000000000000000000000000000000000000000000000000000000000000000000000000000000000000000000000000000000000000000000000000000000000000000000000000
310
000000000000000000000000000000000000000000000000000000000000000000000000000000000000000000000000000000000000000000000000000000000000F5F5F5F5F5F5F5F5F5F5F5F5F5F5F5F5F5F5F5F5F5F5F5F5F5F5F5F5F5F5F5F5F5F5F5F5F5F5F5F5F5F5F5F5F5F5F5F5F5F5F5F5F5F5F5F5F5F5F5F5F5
310
F5F5F5F5F5F5F5F5F5F5F5F5F5F5F5F5F5F5F5F5F5F5F5F5F5F5F5F5F50000000000000000000000000000F5F5F5F5F5F5F5F5F5F5F5F5F5F5F5F5F5F5F5F5F5F5F5F5F5F5F5F5F5F5F5F5F5F5F5F5F5F5F5F5F5F5F5F5F5F5F5F5F5F5F5F5F5F5F5F5F5F5F5F5F5F5F5F5F5F5F5F5F5F5F5F5F5F5F5F5F5F5F5F5F5F5F5F5
310
F5F5F5F5F5F50000000000000000000000000000F5F500000000000000000000000000000000000000000000F5F500F5F5F5F5F5F5F5F5F5F5F5F5F5F5F5F5F5F5F5F5F5F5F5F5F5F5F5F5F5F5F5F5F5F5F5F5F5F5F5F5F5F5F5F5F5F5F5F5F5F5F5F5F5F5F5000000000000F5F50000000000000000000000000000F5F500
310
000000000000000000000000000000000000000000F5F5F5F5F5F5F5F5F5F5F5F5F5F5F5F5F5F5F5F5F5F5F5F5F5F5F5F5F5F5F5F5F5F5F5F5F5F5F5F5F5F5F5F5F5F5F5F5F5F5F5F5F5F5F5F5F5F5F5F5F5F5F5F5F5F50000000000000000000000000000F5F500000000000000000000000000000000000000000000F5F5
310
F5F5F5F5F5F5F5F5F5F5F5F5F5F5F5F5F5F5F5F5F5F5F5F5F5F5F5F5F5F5F5F5F5F5F5F5F5F5F5F5F5F5F5F5F5F5F5F5F5F5F5F5F5F5F5F5F5F5F5F5F5F5F5F50000000000000000000000000000F5F500000000000000000000000000000000000000000000F5F5F5F5000000F5F5F5F5F5F5F5F5F5F5F500000000F5F5F5
310
F5F5F50000F5F500000000000000000000F5F5F5F5F5F5F5F50000F5F5F5F5F5F5000000000000F5F50000000000000000000000000000F5F500000000000000000000000000000000000000000000F5F50000000000000000000000000000000000000000F5F5000000000000000000000000000000000000F5F500000000
310
00000000F5F5F5F5F5F5000000000000F5F50000000000000000000000000000F5F500000000000000000000000000000000000000000000F5F5F5F5F5F5F5F5F5F5F5F5F5F5F5F5F5F5F5F5F5F5F5F5F5F5F5F5F5F5F5F5F5F5F5F5F5F5F5F5F5F5F5F5F5F5F5F5F5F5F5F5F5F5F5F5F5F5F5F5F5F5F5F5F5F50000000000
310
000000000000000000F5F500000000000000000000000000000000000000000000F5F5F5F5F5F5F5F5F5F5F5F5F5F5F5F5F5F5F5F5F5F5F5F5F5F5F5F5F5F5F5F5F5F5F5F5F5F5F5F5F5F5F5F5F5F5F5F5F5F5F5F5F5F5F5F5F5F5F5F5F5F5F5F5F5F50000000000000000000000000000F5F5F5F5F5F5F5F5F5F5F5F5F5F5
310
F5F5F5F5F5F5F5F5F5F5F5F50000000000000000000000000000000000000000000000000000000000000000000000000000000000000000000000000000000000000000000000000000F5F50000000000000000000000000000F5F5F5F5F5F5F5F5F5F5F5F5F5F5F5F5F5F5F5F5F5F5F5F5F5F50000000000000000000000
310
000000000000000000000000000000000000000000000000000000000000000000000000000000000000000000000000000000F5F50000000000000000000000000000F5F5E1D3BEE1F49BE1E1BEA1E1A1BEF4E1C5E1F4BFBEF4C5F5F5F5F5000000000000000000000000000000F5F5F5F5F5F5F5F5F5F5F5F5F5F5F5F5F5
310
F5F5F5F5F5F5F5F5F5F5F5F5F5F5F5F5F5F5F5F5F5F5F5F500000000F5F50000000000000000000000000000F5F5E1F4C5F4F4C5BEA1E1BEF49BF4E1F4E19AE1F4F4C5F4F5F5F5F5000000000000000000000000000000F5F5F5F5F5F5F5F5F5F5F5F5F5F5F5F5F5F5F5F5F5F5F5F5F5F5F5F5F5F5F5F5F5F5F5F5F5F5F5F5
310
F500000000F5F50000000000000000000000000000F5F5E1BFA0C5BFA0C5BEC59BC4C5BFA0C5BEC59BC4C59BC4F5F50000000000000000000000000000000000F5F5F5F5F5F5F5F5F5F5F5F5F5F5F5F5F5F5F5F5F5F5F5F5F5F5F5F5F5F5F5F5F5F5F5F5F5F5F5F5F500000000F5F50000000000000000000000000000F5F5
310
F5F5F5F5F5F5F5F5F5F5F5F5F5F5F5F5F5F5F5F5F5F5F5F5F5F5F5F5F5F5F5F5F5F5F5F5F5F5F5F5F5F5F5F5F5F5F5F5F5F5F5F5F5F5F5F5F5F5F5F5F5F5F5F5F5F5F5F5F5F5F5F5F5F5F5F5F5F5F5F5F5F5F5F5F5F5F5F50000000000000000000000000000F5F5F5F5F5F5F5F5F5F5F5F5F5F5F5F5F5F5F5F5F5F5F5F5F5
310
F5F5F5F5F5F5F5F5F5F5F5F5F5F5F5F5F5F5F5F5F5F5F5F5F5F5F5F5F5F5F5F5F5F5F5F5F5F5F5F5F5F5F5F5F5F5F5F5F5F5F5F5F5F5F5F5F5F5F5F5F5F5F5F5F50000000000000000000000000000F5F500000000000000000000000000000000000000000000000000000000000000000000000000000000000000000000
310
00000000000000000000000000000000000000000000000000000000000000000000000000000000F5F50000000000000000000000000000F5F5000000000000000000000000000000000000000000000000000000000000000000000000000000000000000000000000000000000000000000000000000000000000000000
310
0000000000000000000000000000000000F5F50000000000000000000000000000F5F50000000000000000000000000000000000000000000000000000000000000000000000000000000000000000000000000000000000000000000000000000000000000000000000000000000000000000000000000000F5F500000000
310
00000000000000000000F5F50000000000000000000000000000000000000000000000000000000000000000000000000000000000000000000000000000000000000000000000000000000000000000000000000000000000000000000000000000F5F50000000000000000000000000000F5F50000000000000000000000
310
000000000000000000000000000000000000000000000000000000000000000000000000000000000000000000000000000000000000000000000000000000000000000000000000000000F5F50000000000000000000000000000F5F5C3C3C3C3C3C3C3C3C3C3C3C3C3C3C3C3C3C3C3C3C3C3C3C3C3C3C3C3C3C3C3C3C3C3
310
C3C3C3C3C3C3C3C3C3C3C3C3C3C3C3C3C3C3C3C3C3C3C3C3C3C3C3C3C3C3C3C3C3C3C3C3C3C3C3C3C3C3C3C3C3C3C3C3C3C3C3C3F5F50000000000000000000000000000F5F5000000000000000000000000000000000000000000000000000000000000000000000000000000000000000000000000000000000000000000
310
00000000000000000000000000000000000000000000000000000000C3F5F50000000000000000000000000000F5F50000000000000000000000000000000000000000000000000000000000000000000000000000000000000000000000000000000000000000000000000000000000000000000000000000000000000000
310
0000000000C3F5F50000000000000000000000000000F5F500000000000000000000000000000000000000000000000000000000000000000000000000000000000000000000000000000000000000000000000000000000000000000000000000000000000000000000000000C3F5F50000000000000000000000000000F5
310
F500000000000000000000000000000000000000000000000000000000000000000000000000000000000000000000000000000000000000000000000000000000000000000000000000000000000000000000000000C3F5F50000000000000000000000000000F5F500000000000000000000000000000000000000000000
310
000000000000000000000000000000000000000000000000000000000000000000000000000000000000000000000000000000000000000000000000000000C3F5F50000000000000000000000000000F5F5000000000000000000000000000000000000000000000000000000000000000000000000000000000000000000
310
00000000000000000000000000000000000000000000000000000000000000000000000000000000C3F5F50000000000000000000000000000F5F50000000000000000000000000000000000000000000000000000000000000000000000000000000000000000000000000000000000000000000000000000000000000000
310
0000000000000000000000000000000000C3F5F50000000000000000000000000000F5F500000000000000000000000000000000000000000000000000000000000000000000000000000000000000000000000000000000000000000000000000000000000000000000000000000000000000000000000000C3F5F5000000
310
0000000000000000000000F5F50000000000000000000000000000000000000000000000000000000000000000000000000000000000000000C3C3C3C3C3C3C3C3000000000000000000000000000000000000000000000000000000000000000000C3F5F50000000000000000000000000000F5F500000000000000000000
310
0000000000000000000000000000000000000000000000000000000000000000C3C3C3ECECECECECECECC3C3C3000000000000000000000000000000000000000000000000000000000000C3F5F50000000000000000000000000000F5F500000000000000000000000000000000000000000000C3C3C3C3C3C3C3C3C3C300
310
00000000000000C3C3C3ECECECECECECECECECECECC3C30000000000000000000000000000000000000000000000000000000000C3F5F50000000000000000000000000000F5F50000000000000000000000000000000000000000C3C3C3ECECECECECECECECECC3C3C3C3C3C3C3C3C3ECECECECECECEC00EC00ECECECECEC
310
C3C3000000000000000000000000000000000000000000000000000000C3F5F50000000000000000000000000000F5F500000000000000000000000000000000000000C3C3ECECECECECECECECECEC00ECECECEC00ECECECECECECECECECECECECECECECECECECECECC3C30000000000000000000000000000000000000000
310
000000000000C3F5F50000000000000000000000000000F5F5000000000000000000000000000000000000C3C3EC00ECECECEC00ECECECECECECECECECECECECECECECECECECECECECECECECECECECECECECECC3C300000000000000000000000000000000000000000000000000C3F5F50000000000000000000000000000
310
F5F50000000000000000000000000000000000C3C3ECECECECECECECECECECECECECECECECECECECECECECECECECECECECECECECECECECECECECECECECC3C3C30000000000000000000000000000000000000000000000C3F5F50000000000000000000000000000F5F500000000000000000000000000000000C3C3ECECEC
310
ECEC00ECECECECECECECECECECECECECECECECECECECECECECECECECEC00ECECECECECECECECECECC3C3C3000000000000000000000000000000000000000000C3F5F50000000000000000000000000000F5F5000000000000000000000000000000C3C3ECECECECECECECECECECECECECEC00ECECECECECEC00ECECEC00EC
310
ECECECECECECECECECECECECECECECECECECECC3C3C3C3C30000000000000000000000000000000000C3F5F50000000000000000000000000000F5F50000000000000000000000000000C3C3ECECECECECECECECECECECECECECECECECECECECECECF5F5F5F5F5F5F5F5ECECECECECECECECECECECECECECECECECECECECEC
310
ECC3C3C3C300000000000000000000000000C3F5F50000000000000000000000000000F5F500000000000000000000000000C3C3ECECECECECECECECECECECECEC00ECECECECECECECECECF5F5F5ECF5F5ECF5ECECECECECECECECECECECECECECECECECECECECECECECECECC3C3000000000000000000000000C3F5F50000
310
000000000000000000000000F5F500000000000000000000C3C3C3C3ECECECECECECEC00ECECECEC00ECECECECECECECECECECECF5ECECECF5ECECF5ECECECECECECECECECECECECECECECECECECECECECECECECECECECC3C300000000000000000000C3F5F50000000000000000000000000000F5F50000000000000000C3
310
C3C3ECECECD2D2D2D2D2ECECD2D2D2D2D2D2D2D2D2ECECECECECECD2D2F5D2D2ECF5ECECF5ECECECECECECECECD2D2D2D2D2ECD2D2D2D2ECECECECD2D2D2D2ECECD2D2000000000000000000C3F5F50000000000000000000000000000F5F50000000000000000D2D2D2D2D2D2D2D2D2D2D2D2D2D2D2D2D2D2D2D2D200D2D2
310
D2D2D2D2D2D2F5D2D2D2D2D2D2F5D2D2D2D2D2D2D2D2D2D2D2D2D2D2D2D2D2D2D2D2D2D2D2D2D2D2D2D2D2D2000000000000000000C3F5F50000000000000000000000000000F5F50000000000000000D2D2000000D2D2D2D2D2D2D2D2D2D2D2D2D2D2D2D2D2D2D2D2D2D2D2D2D2F5D2D2D2D2D2D2F5D2D2D2D2D2D2D2D2D2
310
D2D2D2D2D2D2D2D2D2D2D2D2D2D2D2D2D2D2D2D2D2000000000000000000C3F5F50000000000000000000000000000F5F50000000000000000D2D2D2D2D2D2D2D2D8D8D8D8D2D2D2D2D2D2D2D8D8D8D8D8D8D8D8D8D8D2F5D2D2D2D2D2D2F5D2D2D2D2D2D2D2D2D2D2D2D2D2D2D2D2D2D2D2D2D2D2D8D8D8D8D8D8D8C30000
310
00000000000000C3F5F50000000000000000000000000000F5F50000000000000000C3B6E1B6E1B6B68BB68B8B60D8D2D2D28B8B8B8BB68BB6B6E1B6E1B6E1B6BEB62800BE2DE1BEE1B6E1B6E1B6E1B6B68BB68B8B60D8D2D2D28B8B8B8BB68BB6B6E1B6E1C3000000000000000000C3F5F500000000000000000000000000
310
00F5F50000000000000000C3E1B6B6B6B6B6B68B8B8B8BD8D2D2D28B8B8B8B8BB6B6B6B6B6B6E1E1E1BEE12D2DBE28E1BE0000000000000000000000000000D8D2D2D28B8B8B8B8BB6B6B6B6E1E1C3000000000000000000C3F5F50000000000000000000000000000F5F50000000000000000C3B6E1B6B68BB68BB68B8B8B
310
D8D2D2D200000000B68BB6B6E1B6E1B6E1B6BEE128F5BE28E1BEF5F5F5F5F5F5F500000000000000D8D2D2D28B60B68BB68BB6B6E1B6E1C3000000000000000000C3F5F50000000000000000000000000000F5F50000000000000000C3E1B6E1B6B6B6B68B8B8B8BD8D2D2D2608B8BB68BB6B6B6B6B6B6E1B6E1BEE1E1E1F5
310
E1E1BEF5F5F5F5F5F5F500000000000000D8D2D2D28B8B8BB68BB6B6B6B6E1E1C3000000000000000000C3F5F50000000000000000000000000000F5F50000000000000000C3B6E1B6E1B6B68BB68B8B60D8D2D2D28B608B8BB68BB6B6E1B6E1B6E1B6BEB6E1E1F5B6E1BEF5F5F5F5F5F5F5F5F5F5F5F50000D8D2D2D28B8B
310
8B8BB68BB6B6E1B6E1C3000000000000000000C3F5F50000000000000000000000000000F5F50000000000000000C3E1B6B6B6B6B6B68B8B8B8BD2D2D2D28B8B8B8B8BB6B6B6B6E1B6E1E1E1BEE1E1E1F5E1E1BEF5F5F5F5F5F5F5F5F50000000000D2D2D2D28B8B8B8B8BB6B6B6B6E1E1C3000000000000000000C3F5F500
310
00000000000000000000000000F5F50000000000000000C3B6E1B6B6B6B68BB68B8B60D2D2D2D28B60B68BB68BB6B6E1B6E1B6E1B6BE00E1B6F5E1E1BEF5F5F5F5F5F5F5F5F50000000000D2D2D2D28B60B68BB68BB6B6E1B6E1C3000000000000000000C3F5F50000000000000000000000000000F5F50000000000000000
310
C3E1E1E1B6B6B6B68B8B8B8BD2D2D2D2608B8B8B8BB6B600B6B6B6E1B6E1BEE1E1E1F5F5E1BEF5F5F5F5F5F5F5F5F50000000000D2D2D2D2608B8BB68BB6B6B6B6E1E1C3000000000000000000C3F5F50000000000000000000000000000F5F50000000000000000C3B6E1B6E1B6B68BB68B8B60D2D2D2D28B8B8B8BB68BB6
310
B6E1B6E1B6E1B6BEB6E1E1BEF5F5F5F5F5F5F5F5F5F5F5F50000000000D2D2D2D28B8B8B8BB68BB6B6E1B6E1C3000000000000000000C3F5F50000000000000000000000000000F5F50000000000000000C3E1B6B6B6B6B6B68B8B8B8BD2D2D2D28B8B8B8B8BB6B6B6B6E1B6E1E1E1BE00E1E1BEE1E1BEF5F5F5F5F5F5F5F5
310
F5F5F5000000D2D2D2D28B8B8B8BB6B6B6B6B6E1E1C3000000000000000000C3F5F50000000000000000000000000000F5F50000000000000000C3B6E1B6B6B6B68BB68B8B60D2D2D2D28B60B68BB68BB6B6B6B6E1B6E1B6BEE1E1B6BEE1E1BEF5F5F5F5F5F5F5F5F5F5F5000000D2D2D2D28B60B68BB68BB6B6E1B6E1C300
310
0000000000000000C3F5F50000000000000000000000000000F5F50000000000000000C3E1B6E1B6B6B6B68B8B8B8BD2D2D2D28B8B8BB68BB6B6B6B6B6B6E1B6E1BE00E1E1BEE1E1BEF5F5F5F5F5F5F5F5F5F5F5F50000D2D2D2D28B8B8BB68BB6B6B6B6E1E1C3000000000000000000C3F5F5000000000000000000000000
310
0000F5F50000000000000000C3B6E1B6E1B6B68BB68B8B60D8D2D2D28B8B8B8BB68BB6B6E1B6E1B6E1B6BEB6E1E1BEB6E1BEF5F5F5F5F5F5F5F5F5F5F5F50000D8D2D2D28B8B8B8BB68BB6B6E1B6E1C3000000000000000000C3F5F50000000000000000000000000000F5F50000000000000000C3E1B6B6B6B6B6B68B8B8B
310
8BD8D2D2D28B8B8B8B8BB6B600B6B6B6E1E1E1BEE1E1E1BEE1E1BEF5F5F5F5F5F5F5F5F5F5F5F50000D8D2D2D28B8B8B8B8BB6B6B6B6E1E1C3000000000000000000C3F5F50000000000000000000000000000F5F50000000000000000C3B6E1B6E1B6B68BB68B8B60D8D2D2D28B60B68BB68BB6B6E1B6E1B6E1B6BE00E1B6
310
BEE1E1BEF5F5F5F5F5F5F5F5F5F5F5F50000D8D2D2D28B60B68BB68BB6B6E1B6E1C3000000000000000000C3F5F50000000000000000000000000000F5F50000000000000000C3E1E1E1B6B6B6B68B8B8B8BD8D200D28B8B8BB68BB6B6B6B6B6B6E1B6E1BEE1E1E1BEE1E1BE0000000000000000000000000000D8D2D2D260
310
8B8BB68BB6B6B6B6E1E1C3000000000000000000C3F5F50000000000000000000000000000F5F50000000000000000C3B6E1B6E1B6B68BB68B8B60D8D200D28B608B8BB68BB6B6E1B6E1B6E1B6BEB6E1E1BEE1E1BEE1B6E1B6E1B6B6B6B68BB68B8B60D8D2D2D88B8BB68BB68BB6B6E1B6E1C3000000000000000000C3F5F5
310
0000000000000000000000000000F5F50000000000000000C3E1B6B6B6B6B6B68B8B8B8BD8D2D2D28B8B8B8B8BB6B6B6B6B6B6E1E1E1BEE1E1E1BEE1E1BEE1E1B6E1B6B6B6B6B6B68B8B8B8BD8D2D2D88B8B8B8B8BB6B6B6B6E1E1C3000000000000000000C3F5F50000000000000000000000000000F5F500000000000000
310
00C3B6E1B6B6B6B68BB68B8B60D8D2D2D88B60B68BB68BB6B6E1B6E1B6E1B6BEE1E1B6BE00F5BEF5F5F5B6E1B6B68BB68BB68B8B60D8D2D2D88B60B68BB68BB6B6E1B6E1C3000000000000000000C3F5F50000000000000000000000000000F5F50000000000000000C3E1B6E1B6B6B6B68B8B8B8BD8D2D2D2608B8B8B8BB6
310
B6B6B6B6B6E1B6F5BEF5F5F5BEF50000000000F5F5F5F5F5F5F5F5F5F5F5F5D2D2D8608B8B8B8BB6B6B6B6E1E1C3000000000000000000C3F5F50000000000000000000000000000F5F50000000000000000C3B6E1B6E1B6B68BB68B8B60D8D2D2D28B8B8B8BB68BB6B6F5F5F5F5F50000000000BE00000000000000000000
310
0000000000000000D2D2F5F5F58B8BB68BB6B6E1B6E1C3000000000000000000C3F5F50000000000000000000000000000F5F50000000000000000C3E1B6B6B6B6B6B68B8B8B8BD2D2D2D28B8B8B8BF5F5F5F500000000000000000000BE00000000000000000000000000000000000000000000F5F5F5F5B6B6B6B6E1E1C3
310
000000000000000000C3F5F50000000000000000000000000000F5F50000000000000000C3B6E1B6E1B6B68BB68B8B60D2D2D2D2F5F5F5F500000000000000000000BEF5F5F5BEF5F5BEF5F5F5F5F5F5F5F5F5F5F5F5F500000000000000000000F5F5B6E1B6E1C3000000000000000000C3F5F50000000000000000000000
310
000000F5F50000000000000000C3E1E1E1B6B6B6B68B8BF5F5D2D2D2D2000000000000000000F5F5F5F5F5BEE1E1E1BEE1E1BEE1E1B6B6B6B6B6B6B6B68B8BF5F5D2D2D2F5F5000000000000F5F5F5E1C3000000000000000000C3F5F50000000000000000000000000000F5F50000000000000000F5F5F5F5F5F5F5F5F5F5
310
0000000000000000000000F5F5F5F5F5E1B6E1B6BEB6E1E1BEE1E1BEE1B6E1B6E1B6B68BB68BB68B8B60D2D2D2D8F5F5F5F5000000000000F5F5000000000000000000C3F5F50000000000000000000000000000F5F50000000000000000C300000000000000000000000000000000F5F5F5F5B6B6B6B6B6B6E1E1E1BEE1E1
310
E1BEE1E1BEE1E1B6E1B6B6B6B68BB68B8B8B8BD2D2D2D88B8B8B8BF5F5F500000000C3000000000000000000C3F5F50000000000000000000000000000F5F50000000000000000C30000000000000000000000D2F5D2F5F5F5B68BB68BB6B6E1B6E1B6E1B6BEE1E1B6BEE1E1BEE1B6E1B6E1B6B68BB68BB68B8B60D2D2D2D8
310
8B60B68BB68BF5F5F50000C3000000000000000000C3F5F50000000000000000000000000000F5F50000000000000000C300F5F5F5F5F5F5F5F5F5F5D200D2D8608B8B8B8BB6B6B6B6B6B6E1B6E1BEE1E1E1BEE1E1BEE1E1B6E1B6B6B6B6B6008B8B8B8BD2F5D2D88B8B8BB68BB6B6B6F5F5F5C3000000000000000000C3F5
310
F50000000000000000000000000000F5F50000000000000000F5F5E1B6E1B6B68BB68B8B60D200F5D88B8B8B8BB68BB6B6E1B6E1B6E1B6BEB6E1E1BEB6E1BEE1B6E1B6E1B6B68BB68BB68B8B60D2F5D2D88B8B8B8BB68BB6B6E1B6E1F5000000000000000000C3F5F50000000000000000000000000000F5F5000000000000
310
0000C3E1B6B6B6B6B6B68B8B8B8BD200F5D88B8B8B8B8BB6B6B6B6E1B6E1E1E1BEE1E1E1BEE1E1BEE1E1E1E1B6B6B6B6B6B68B8B8B8BD2F5D2D88B8B8B8B8BB6B6B6B6E1E1C3000000000000000000C3F5F50000000000000000000000000000F5F50000000000000000C3B6E1B6B68BB68BB68B8B60D2F5F5F5F5F5F5F5F5
310
F5F5F5F5F5F5F5F5F5F5F5F5F5F5F5F5F5F5F5F5F5F5F5F5F5F5F5F5F5F5F5F5F5D2D88B60B68BB68BB6B6E1B6E1C3000000000000000000C3F5F50000000000000000000000000000F5F50000000000000000C3E1E1E1B6B6B6B68B8B8B8BD200F5D8608B8BB68BB6B6B6B6B6B6E1F5F5F5F5F5F5F5F5F5F5F5E1B6B6B6B6
310
B6B6B6B68B8B8B8BD2F5F5D8608B8BB68BB6B6B6B6E1E1C3000000000000000000C3F5F50000000000000000000000000000F5F50000000000000000C3B6E1B6E1B6B68BB68B8B60D200D2D88B8B8B8BB68BB600E1B600B6F5F5F5F5F5F5F5F5F5F5F5B6E1B6E100E1B6B68BB68B8B60D2D2D2D88B8B8B8BB68BB6B6E1B6E1
310
C3000000000000000000C3F5F50000000000000000000000000000F5F50000000000000000C3E1B6B6B6B6B6B68B8B8B8BD200D2D88B8B8B8B8BB6F5F5F5F5F5F5F5F5F5F5F5F5F5F5F5F5F5F5F5F5F5F5F5B6B6B68B8B8B8BD200D2D88B8B8B8B8BB6B6B6B6E1E1C3000000000000000000C3F5F500000000000000000000
310
00000000F5F50000000000000000C3B6E1B6B68BB68BB68B8B60D200D2D88B60B68BB68BF5F5F5F5F5F5F5F5F5F5F5F5F5F5F5F5F5F5F5F5F5F5F58BB68BB68B8B60D200D2D88B60B68BB68BB6B6E1B6E1C3000000000000000000C3F5F50000000000000000000000000000F5F50000000000000000C3E1B6E1B6B6B6B68B
310
8B8B8BD200D2D88B8B8BB68BB6B6B6B6B6B6E1B6E1BEE1E1E1BEE1E1BEE1E1B6E1B6B6B6B6B6B68B8B8B8BD200D2D88B8B8BB68BB6B6B6B6E1E1C3000000000000000000C3F5F50000000000000000000000000000F5F50000000000000000C3B6E1B6E1B6B68BB68B8B60D200D2D88B8B8B8BB68BB6B6E1B6E1B6E1B6BEE1
310
E1E1F5E1E1BEE1B6E1B6E1B6B6B6B68BB68B8B60D200D2D88B8B8B8BB68BB6B6E1B6E1C3000000000000000000C3F5F50000000000000000000000000000F5F50000000000000000C3E1B6B6B6B6B6B68B8B8B8BD200D2D88B8B8B8BB6B6B6B6B6B6B6E1E1E1BEE1E1E1F5E1E1BEE1E1E1E1B6B6B600B6B68B8B8B8BD2D2D2
310
D88B8B8B8B8BB6B6B6B6E1E1C3000000000000000000C3F5F50000000000000000000000000000F5F50000000000000000C3B6E1B6B6B6B68BB68B8B60D200D2D28B60B68BB68BB6B6B6B6E1B6E1B6BEE1E1B6F5F5E1BEE1B6000000000000000000000060D2D2D2D28B60B68BB68BB6B6E1B6E1C3000000000000000000C3
310
F5F50000000000000000000000000000F5F50000000000000000C3E1E1E1B6B6B6B68B8B8B8BD2D2D2D2608B8BB68BB6B6B6B6B6B6E1B6E1BEE1E1E1BEF5E1BEE1E1F5F5F5F5000000000000008BD2D2D2D2608B8BB68BB6B6B6B6E1E1C3000000000000000000C3F5F50000000000000000000000000000F5F50000000000
310
000000C3B6E1B6B6B6B68BB68B8B60D2D2D2D28B8B8B8BB68BB6B6E1B6E1B6E1B6BEB6E1E1BEE1F5F5E1B6F5F5F5F50000000000000060D2D2D2D28B8BB68BB68BB6B6E1B6E1C3000000000000000000C3F5F50000000000000000000000000000F5F50000000000000000C3E1B6B6B6B6B6B68B8B8B8BD2D2D2D28B8B8B8B
310
8BB6B6B6B6B6B6E1E1E1BE00E1E1BEE1E1F5F5F5F5F5F5F5F5F5F5F5F500008BD2D2D2D28B8B8B8B8BB6B6B6B6E1E1C3000000000000000000C3F5F50000000000000000000000000000F5F50000000000000000C3B6E1B6B68BB68BB68B8B60D2D2D2D28B60B68BB68BB6B6E1B6E1B6E1B6BEE1E1B6BEE1E1BEE1B6000000
310
000000000000000060D2D2D2D28B8BB68BB68BB6B6E1B6E1C3000000000000000000C3F5F50000000000000000000000000000F5F50000000000000000C3E1E1E1B6B6B6B68B8B8B8BD2D2D2D28B8B8BB68BB6B6B6B6B6B6E1B6E1BEE1E1E1BEE1E1BEE1E100000000000000000000008BD2D2D2D28B8B8B8B8BB6B6B6B6E1
310
E1C3000000000000000000C3F5F50000000000000000000000000000F5F50000000000000000C3B6E1B6B6B6B68BB68B8B60D2D2D2D28B8B8B8BB68BB6B6E1B6E1B6E1B6BEB6E1E1BEB6E1BEE1B6E1B6E1B6B6B6B68BB68B8B60D2D2D2D28B8B8B8BB68BB6B6E1B6E1C3000000000000000000C3F5F5000000000000000000
310
0000000000F5F50000000000000000C3E1B6B6B6B6B6B68B8B8B8BD2D2D2D28B8B8B8B8BB6B6B6B6E1B6E1E1E1BEE1E1E1BEE1E1BEE1E1B6E1B6B6B6B68BB68B8B8B8BD2D2D2D28B8B8B8B8BB6B6B6B6E1E1C3000000000000000000C3F5F50000000000000000000000000000F5F50000000000000000C3B6E1B6B68BB68B
310
B68B8B60D2D2D2D28B60B68BB68BB6B6E1B6E1B6E1B6BEE1E1B6BEE1E1BEE1B6E1B6E1B6B68BB600B68B8B60D2D2D2D28B60B68BB68BB6B6E1B6E1C3000000000000000000C3F5F50000000000000000000000000000F5F50000000000000000C3E1E1E1B6B6B6B68B8B8B8BD2D2D2D2608B8B8B8BB6B6B6B6B6B6E1B6E1BE
310
E12D2DBE28E1BEE1E1B6B6B6B6B6B6B6B68B8B8B8BD2D2D2D2608B8B8B8BB6B6B6B6E1E1C3000000000000000000C3F5F50000000000000000000000000000F5F50000000000000000C3B6E1B6E1B6B68BB68B8B60D8D2D2D28B8B8B8BB68BB6B6E1B6E1B6E1B6BEB62D2DBE28E1BEE1B6E1B6E1B6E1B6B68BB68B8B60D2D2
310
D2D28B8B8B8BB68BB6B6E1B6E1C3000000000000000000C3F5F50000000000000000000000000000F5F50000000000000000C3E1B6E1B6B6B6B68B8B8B8BD2D2D2D88B8B8B8B8BB6B6B6B6B6B6E1E1E1BEE12828BE2DD2D2E1E1B6E1B6B6B6B6B6B68B8B8B8BD200D2D88B8B8B8B8BB6B6B6B6E1E1C3000000000000000000
310
C3F5F50000000000000000000000000000F5F50000000000000000D2D2D2D2D2D2D2D2D8D8D2D2D2D2D2D2D2D2D2D8D8D8D2D2D2D2D2D2D2D2D2D2D2D2D2D2D2BED2D2D2D2D2D2D2D2D2D2D2D2D2D2D2D2D2D2D2D2D2D2D8D8D8D2D2D2D2D8000000000000000000C3F5F50000000000000000000000000000F5F500000000
310
00000000D2D2D2D2D2D2D2D2D2D2D2D2D2D2D2D2D2D2D2D2D2D2D2D2D2D2D2D2D2D2D2D2D2D2D2D2D2D2D2D2D2D2D2D2D2D2D2D2D2D2D200D2D2D2D2D2D2D2D2D2D2D2D2D2D2D2D2000000000000000000C3F5F50000000000000000000000000000F5F50000000000000000D2D2D2D2D2D2D2D2D2D2D2D2D2D2D2D2D2D2D2
310
D2D2D2D2D2D2D2D2D2D2D2D2D2D2D2D2D2000000D2D2D2D2D2D2D2D2D2D2D2D2D2D2D2D2D2D2D2D2D2D2D2D2D2D2D2D2D2000000000000000000C3F5F50000000000000000000000000000F5F50000000000000000D8D8D8D8D8D8D2D8D8D8D8D8D8D8D8D8D8D8D8D8D8D8D8D8D8D8D8D8D8D8D8D2D2D8BED8D8D8D8D8D8D8
310
D8D8D8D8D2D8D8D8D8D8D8D8D8D2D8D8D8D8D2D8D8D8D8D8D8D8000000000000000000C3F5F50000000000000000000000000000F5F5000000000000000000000000000000000000000000000000000000000000000000000000000000000000BE000000000000000000000000000000000000000000000000000000000000
310
000000000000000000000000C3F5F50000000000000000000000000000F5F5000000000000000000000000000000000000000000000000000000000000000000000000000000000000BE000000000000000000000000000000000000000000000000000000000000000000000000000000000000C3F5F50000000000000000
310
000000000000F5F500000000000000000000000000000000000000000000000000000000000000000000000000000000000000000000000000000000000000000000000000000000000000000000000000000000000000000000000000C3F5F50000000000000000000000000000F5F5000000000000000000000000000000
310
00000000000000000000000000000000000000000000000000000000000000000000000000000000000000000000000000000000000000000000000000000000000000000000C3F5F50000000000000000000000000000F5F50000000000000000000000000000000000000000000000000000000000000000000000000000
310
0000000000000000000000000000000000000000000000000000000000000000000000000000000000000000000000C3F5F50000000000000000000000000000F5F500000000000000000000000000000000000000000000000000000000000000000000000000000000000000000000000000000000000000000000000000
310
000000000000000000000000000000000000000000000000C3F5F50000000000000000000000000000F5F5000000000000000000000000000000000000000000000000000000000000000000000000000000000000000000000000000000000000000000000000000000000000000000000000000000000000000000000000
310
00C3F5F50000000000000000000000000000F5F500000000000000000000000000000000000000000000000000000000000000000000000000000000000000000000000000000000000000000000000000000000000000000000000000000000000000000000000000C3F5F50000000000000000000000000000F5F5000000
310
00000000000000000000000000000000000000000000000000000000000000000000000000000000000000000000000000000000000000000000000000000000000000000000000000000000000000000000C3F5F50000000000000000000000000000F5F50000000000000000000000000000000000000000000000000000
310
0000000000000000000000000000000000000000000000000000000000000000000000000000000000000000000000000000000000000000000000C3F5F50000000000000000000000000000F5F500000000000000000000000000000000000000000000000000000000000000000000000000000000000000000000000000
310
000000000000000000000000000000000000000000000000000000000000000000000000C3F5F50000000000000000000000000000F5F5000000000000000000000000000000000000000000000000000000000000000000000000000000000000000000000000000000000000000000000000000000000000000000000000
310
00000000000000000000000000C3F5F50000000000000000000000000000F5F500000000000000000000000000000000000000000000000000000000000000000000000000000000000000000000000000000000000000000000000000000000000000000000000000000000000000000000000000C3F5F500000000000000
310
00000000000000F5F500000000000000000000000000000000000000000000000000000000000000000000000000000000000000000000000000000000000000000000000000000000000000000000000000000000000000000000000000C3F5F50000000000000000000000000000F5F50000000000000000000000000000
310
0000000000000000000000000000000000000000000000000000000000000000000000000000000000000000000000000000000000000000000000000000000000000000000000C3F5F50000000000000000000000000000F5F500000000000000000000000000000000000000000000000000000000000000000000000000
310
000000000000000000000000000000000000000000000000000000000000000000000000000000000000000000000000C3F5F50000000000000000000000000000F5F5000000000000000000000000000000000000000000000000000000000000000000000000000000000000000000000000000000000000000000000000
310
00000000000000000000000000000000000000000000000000C3F5F50000000000000000000000000000F5F50000000000000000000000000000000000000000000000000000000000000000000000000000000000000000000000000000000000000000000000000000000000000000000000000000000000000000000000
310
0000C3F5F50000000000000000000000000000F5F500000000000000000000000000000000000000000000000000000000000000000000000000000000000000000000000000000000000000000000000000000000000000000000000000000000000000000000000000C3F5F50000000000000000000000000000F5F50000
310
0000000000000000000000000000000000000000000000000000000000000000000000000000000000000000000000000000000000000000000000000000000000000000000000000000000000000000000000C3F5F50000000000000000000000000000F5F500000000000000000000000000000000000000000000000000
310
000000000000000000000000000000000000000000000000000000000000000000000000000000000000000000000000000000000000000000000000C3F5F50000000000000000000000000000F5F5000000000000000000000000000000000000000000000000000000000000000000000000000000000000000000000000
310
00000000000000000000000000000000000000000000000000000000000000000000000000C3F5F50000000000000000000000000000F5F50000000000000000000000000000000000000000000000000000000000000000000000000000000000000000000000000000000000000000000000000000000000000000000000
310
0000000000000000000000000000C3F5F50000000000000000000000000000F5F500000000000000000000000000000000000000000000000000000000000000000000000000000000000000000000000000000000000000000000000000000000000000000000000000000000000000000000000000C3F5F5000000000000
310
0000000000000000F5F500000000000000000000000000000000000000000000000000000000000000000000000000000000000000000000000000000000000000000000000000000000000000000000000000000000000000000000000000C3F5F50000000000000000000000000000F5F5C3C3C3C3C3C3C3C3C3C3C3C3C3
310
C3C3C3C3C3C3C3C3C3C3C3C3C3C3C3C3C3C3C3C3C3C3C3C3C3C3C3C3C3C3C3C3C3C3C3C3C3C3C3C3C3C3C3C3C3C3C3C3C3C3C3C3C3C3C3C3C3C3C3C3C3C3C3C3C3C3C3C3C3C3C3C3C3F5F50000000000000000000000000000F5F5000000000000000000000000000000000000000000000000000000000000000000000000
310
0000000000000000000000000000000000000000000000000000000000000000000000000000000000000000000000000000F5F50000000000000000000000000000F5F50000000000000000000000000000000000000000000000000000000000000000000000000000000000000000000000000000000000000000000000
310
000000000000000000000000000000000000000000000000000000F5F50000000000000000000000000000F5F500000000000000000000000000000000000000000000000000000000000000000000000000000000000000000000000000000000000000000000000000000000000000000000000000000000000000000000
310
00000000F5F50000000000000000000000000000F5F5F5F5F5F5F5F5F5F5F5F5F5F5F5F5F5F5F5F5F5F5F5F5F5F5F5F5F5F5F5F5F5F5F5F5F5F5F5F5F5F5F5F5F5F5F5F5F5F5F5F5F5F5F5F5F5F5F5F5F5F5F5F5F5F5F5F5F5F5F5F5F5F5F5F5F5F5F5F5F5F5F5F5F5F5F5F5F5F50000000000000000000000000000F5F5F5
310
F5F5F5F5F5F5F5F5F5F5F5F5F5F5F5F5F5F5F5F5F5F5F5F5F5F5F5F5F5F5F5F5F5F5F5F5F5F5F5F5F5F5F5F5F5F5F5F5F5F5F5F5F5F5F5F5F5F5F5F5F5F5F5F5F5F5F5F5F5F5F5F5F5F5F5F5F5F5F5F5F5F5F5F5F5F50000000000000000000000000000000000000000000000000000000000000000000000000000000000
310
00000000000000000000000000000000000000000000000000000000000000000000000000000000000000000000000000000000000000000000000000000000000000000000000000000000000000000000000000000000000000000000000000000000000000000000000000000000000000000000000000000000000000
310
00000000000000000000000000000000000000000000000000000000000000000000000000000000000000000000000000000000000000000000000000000000000000000000000000000000000000000000000000000000000000000000000000000000000000000000000000000000000000000000000000000000000000
310
00000000000000000000000000000000000000000000000000000000000000000000000000000000000000000000000000000000000000000000000000000000000000000000000000000000000000000000000000000000000000000000000000000000000000000000000000000000000000000000000000000000000000
310
000000
  0
XRECORD
  5
956C
102
{ACAD_REACTORS
330
2F40
102
}
330
2F40
100
AcDbXrecord
280
     1
102
MATERIAL
148
0.0
149
0.0
149
0.0
 93
        0
 94
      127
282
     0
 72
     0
 77
     0
171
     0
175
     0
179
     0
273
     0
  0
XRECORD
  5
2F42
102
{ACAD_REACTORS
330
2F40
102
}
330
2F40
100
AcDbXrecord
280
     1
270
     1
271
     1
  0
XRECORD
  5
2F41
102
{ACAD_REACTORS
330
2F40
102
}
330
2F40
100
AcDbXrecord
280
     1
270
     1
271
     1
  0
XRECORD
  5
2F45
102
{ACAD_REACTORS
330
2F40
102
}
330
2F40
100
AcDbXrecord
280
     1
270
     1
271
     1
  0
XRECORD
  5
2F44
102
{ACAD_REACTORS
330
2F40
102
}
330
2F40
100
AcDbXrecord
280
     1
270
     1
271
     1
  0
XRECORD
  5
2F46
102
{ACAD_REACTORS
330
2F40
102
}
330
2F40
100
AcDbXrecord
280
     1
270
     1
271
     1
  0
XRECORD
  5
2F43
102
{ACAD_REACTORS
330
2F40
102
}
330
2F40
100
AcDbXrecord
280
     1
270
     1
271
     1
  0
XRECORD
  5
956B
102
{ACAD_REACTORS
330
2F38
102
}
330
2F38
100
AcDbXrecord
280
     1
102
MATERIAL
148
0.0
149
0.0
149
0.0
 93
        0
 94
      127
282
     0
 72
     0
 77
     0
171
     0
175
     0
179
     0
273
     0
  0
XRECORD
  5
2F3A
102
{ACAD_REACTORS
330
2F38
102
}
330
2F38
100
AcDbXrecord
280
     1
270
     1
271
     1
  0
XRECORD
  5
2F39
102
{ACAD_REACTORS
330
2F38
102
}
330
2F38
100
AcDbXrecord
280
     1
270
     1
271
     1
  0
XRECORD
  5
2F3D
102
{ACAD_REACTORS
330
2F38
102
}
330
2F38
100
AcDbXrecord
280
     1
270
     1
271
     1
  0
XRECORD
  5
2F3C
102
{ACAD_REACTORS
330
2F38
102
}
330
2F38
100
AcDbXrecord
280
     1
270
     1
271
     1
  0
XRECORD
  5
2F3E
102
{ACAD_REACTORS
330
2F38
102
}
330
2F38
100
AcDbXrecord
280
     1
270
     1
271
     1
  0
XRECORD
  5
2F3B
102
{ACAD_REACTORS
330
2F38
102
}
330
2F38
100
AcDbXrecord
280
     1
270
     1
271
     1
  0
XRECORD
  5
956D
102
{ACAD_REACTORS
330
2F48
102
}
330
2F48
100
AcDbXrecord
280
     1
102
MATERIAL
148
0.0
149
0.0
149
0.0
 93
        0
 94
      127
282
     0
 72
     0
 77
     0
171
     0
175
     0
179
     0
273
     0
  0
XRECORD
  5
2F4A
102
{ACAD_REACTORS
330
2F48
102
}
330
2F48
100
AcDbXrecord
280
     1
270
     1
271
     1
  0
XRECORD
  5
2F49
102
{ACAD_REACTORS
330
2F48
102
}
330
2F48
100
AcDbXrecord
280
     1
270
     1
271
     1
  0
XRECORD
  5
2F4D
102
{ACAD_REACTORS
330
2F48
102
}
330
2F48
100
AcDbXrecord
280
     1
270
     1
271
     1
  0
XRECORD
  5
2F4C
102
{ACAD_REACTORS
330
2F48
102
}
330
2F48
100
AcDbXrecord
280
     1
270
     1
271
     1
  0
XRECORD
  5
2F4E
102
{ACAD_REACTORS
330
2F48
102
}
330
2F48
100
AcDbXrecord
280
     1
270
     1
271
     1
  0
XRECORD
  5
2F4B
102
{ACAD_REACTORS
330
2F48
102
}
330
2F48
100
AcDbXrecord
280
     1
270
     1
271
     1
  0
CELLSTYLEMAP
  5
955C
102
{ACAD_REACTORS
330
2FC0
102
}
330
2FC0
100
AcDbCellStyleMap
 90
        3
300
CELLSTYLE
  1
TABLEFORMAT_BEGIN
 90
        5
170
     1
 91
        0
 92
    32768
 62
   257
 93
        1
300
CONTENTFORMAT
  1
CONTENTFORMAT_BEGIN
 90
        0
 91
        0
 92
      512
 93
        0
300

 40
0.0
140
1.0
 94
        5
 62
     0
340
555
144
0.25
309
CONTENTFORMAT_END
171
     0
 94
        0
309
TABLEFORMAT_END
  1
CELLSTYLE_BEGIN
 90
        1
 91
        1
300
_TITLE
309
CELLSTYLE_END
300
CELLSTYLE
  1
TABLEFORMAT_BEGIN
 90
        5
170
     1
 91
        0
 92
        0
 62
   257
 93
        1
300
CONTENTFORMAT
  1
CONTENTFORMAT_BEGIN
 90
        0
 91
        0
 92
      512
 93
        0
300

 40
0.0
140
1.0
 94
        5
 62
     0
340
555
144
0.18
309
CONTENTFORMAT_END
171
     0
 94
        0
309
TABLEFORMAT_END
  1
CELLSTYLE_BEGIN
 90
        2
 91
        1
300
_HEADER
309
CELLSTYLE_END
300
CELLSTYLE
  1
TABLEFORMAT_BEGIN
 90
        5
170
     1
 91
        0
 92
        0
 62
   257
 93
        1
300
CONTENTFORMAT
  1
CONTENTFORMAT_BEGIN
 90
        0
 91
        0
 92
      512
 93
        0
300

 40
0.0
140
1.0
 94
        2
 62
     0
340
555
144
0.18
309
CONTENTFORMAT_END
171
     0
 94
        0
309
TABLEFORMAT_END
  1
CELLSTYLE_BEGIN
 90
        3
 91
        2
300
_DATA
309
CELLSTYLE_END
  0
XRECORD
  5
958E
102
{ACAD_REACTORS
330
2FC0
102
}
330
2FC0
100
AcDbXrecord
280
     1
102
ACAD_ROUNDTRIP_PRE2007_TABLESTYLE
 90
      512
 91
        0
  1

 92
      512
 93
        0
  2

 94
      512
 95
        0
  3

  0
XRECORD
  5
9579
102
{ACAD_REACTORS
330
9578
102
}
330
9578
100
AcDbXrecord
280
     1
102
RTVSPost2010Prop28
280
     1
102
RTVSPost2010PropOp28
 70
     1
102
RTVSPost2010Prop29
280
     1
102
RTVSPost2010PropOp29
 70
     1
102
RTVSPost2010Prop30
280
     0
102
RTVSPost2010PropOp30
 70
     1
102
RTVSPost2010Prop31
280
     0
102
RTVSPost2010PropOp31
 70
     1
102
RTVSPost2010Prop32
280
     0
102
RTVSPost2010PropOp32
 70
     1
102
RTVSPost2010Prop33
280
     0
102
RTVSPost2010PropOp33
 70
     1
102
RTVSPost2010Prop34
280
     0
102
RTVSPost2010PropOp34
 70
     1
102
RTVSPost2010Prop35
280
     0
102
RTVSPost2010PropOp35
 70
     1
102
RTVSPost2010Prop36
280
     0
102
RTVSPost2010PropOp36
 70
     1
102
RTVSPost2010Prop37
 90
       50
102
RTVSPost2010PropOp37
 70
     1
102
RTVSPost2010Prop38
140
0.0
102
RTVSPost2010PropOp38
 70
     1
102
RTVSPost2010Prop39
140
1.0
102
RTVSPost2010PropOp39
 70
     1
102
RTVSPost2010Prop40
 90
        0
102
RTVSPost2010PropOp40
 70
     1
102
RTVSPost2010Prop41ColorIndex
 90
       18
102
RTVSPost2010Prop41ColorRGB
 90
        0
102
RTVSPost2010PropOp41
 70
     1
102
RTVSPost2010Prop42
 90
       50
102
RTVSPost2010PropOp42
 70
     1
102
RTVSPost2010Prop43
 90
        3
102
RTVSPost2010PropOp43
 70
     1
102
RTVSPost2010Prop44ColorIndex
 90
        5
102
RTVSPost2010Prop44ColorRGB
 90
      255
102
RTVSPost2010PropOp44
 70
     1
102
RTVSPost2010Prop45
280
     0
102
RTVSPost2010PropOp45
 70
     1
102
RTVSPost2010Prop46
 90
       50
102
RTVSPost2010PropOp46
 70
     1
102
RTVSPost2010Prop47
 90
       50
102
RTVSPost2010PropOp47
 70
     1
102
RTVSPost2010Prop48
 90
       50
102
RTVSPost2010PropOp48
 70
     1
102
RTVSPost2010Prop49
280
     0
102
RTVSPost2010PropOp49
 70
     1
102
RTVSPost2010Prop50
 90
       50
102
RTVSPost2010PropOp50
 70
     1
102
RTVSPost2010Prop51ColorIndex
 90
      256
102
RTVSPost2010Prop51ColorRGB
 90
-16777216
102
RTVSPost2010PropOp51
 70
     0
102
RTVSPost2010Prop52
140
1.0
102
RTVSPost2010PropOp52
 70
     0
102
RTVSPost2010Prop53
 90
        2
102
RTVSPost2010PropOp53
 70
     1
102
RTVSPost2010Prop54
  1
strokes_ogs.tif
102
RTVSPost2010PropOp54
 70
     1
102
RTVSPost2010Prop55
280
     0
102
RTVSPost2010PropOp55
 70
     1
102
RTVSPost2010Prop56
140
1.0
102
RTVSPost2010PropOp56
 70
     1
102
RTVSPost2010Prop57
140
1.0
102
RTVSPost2010PropOp57
 70
     1
102
RTVSPropertyOp0
 70
     1
102
RTVSPropertyOp1
 70
     1
102
RTVSPropertyOp2
 70
     1
102
RTVSPropertyOp3
 70
     1
102
RTVSPropertyOp4
 70
     1
102
RTVSPropertyOp5
 70
     1
102
RTVSPropertyOp6
 70
     1
102
RTVSPropertyOp7
 70
     1
102
RTVSPropertyOp8
 70
     1
102
RTVSPropertyOp9
 70
     1
102
RTVSPropertyOp10
 70
     1
102
RTVSPropertyOp11
 70
     1
102
RTVSPropertyOp12
 70
     1
102
RTVSPropertyOp13
 70
     1
102
RTVSPropertyOp14
 70
     1
102
RTVSPropertyOp15
 70
     1
102
RTVSPropertyOp16
 70
     1
102
RTVSPropertyOp17
 70
     1
102
RTVSPropertyOp18
 70
     1
102
RTVSPropertyOp19
 70
     1
102
RTVSPropertyOp20
 70
     1
102
RTVSPropertyOp21
 70
     1
102
RTVSPropertyOp22
 70
     1
102
RTVSPropertyOp23
 70
     1
102
RTVSPropertyOp24
 70
     1
102
RTVSPropertyOp25
 70
     1
102
RTVSPropertyOp26
 70
     1
102
RTVSPropertyOp27
 70
     1
102
RTVSPropertyOp28
 70
     1
102
RTVSPropertyOp29
 70
     1
102
RTVSPropertyOp30
 70
     1
102
RTVSPropertyOp31
 70
     1
102
RTVSPropertyOp32
 70
     1
102
RTVSPropertyOp33
 70
     1
102
RTVSPropertyOp34
 70
     1
102
RTVSPropertyOp35
 70
     1
102
RTVSPropertyOp36
 70
     1
102
RTVSPropertyOp37
 70
     1
102
RTVSPropertyOp38
 70
     1
102
RTVSPropertyOp39
 70
     1
102
RTVSPropertyOp40
 70
     1
102
RTVSPropertyOp41
 70
     1
102
RTVSPropertyOp42
 70
     1
102
RTVSPropertyOp43
 70
     1
102
RTVSPropertyOp44
 70
     1
102
RTVSPropertyOp45
 70
     1
102
RTVSPropertyOp46
 70
     1
102
RTVSPropertyOp47
 70
     1
102
RTVSPropertyOp48
 70
     1
102
RTVSPropertyOp49
 70
     1
102
RTVSPropertyOp50
 70
     1
102
RTVSPropertyOp51
 70
     0
102
RTVSPropertyOp52
 70
     0
102
RTVSPropertyOp53
 70
     1
102
RTVSPropertyOp54
 70
     1
102
RTVSPropertyOp55
 70
     1
102
RTVSPropertyOp56
 70
     1
102
RTVSPropertyOp57
 70
     1
102
RTVSPropertyOp58
 70
     1
102
RTVSPropertyOp59
 70
     1
102
RTVSPropertyOp60
 70
     1
102
RTVSPropertyOp61
 70
     1
102
RTVSPropertyOp62
 70
     1
  0
XRECORD
  5
957D
102
{ACAD_REACTORS
330
957C
102
}
330
957C
100
AcDbXrecord
280
     1
102
RTVSPost2010Prop28
280
     0
102
RTVSPost2010PropOp28
 70
     1
102
RTVSPost2010Prop29
280
     1
102
RTVSPost2010PropOp29
 70
     1
102
RTVSPost2010Prop30
280
     1
102
RTVSPost2010PropOp30
 70
     1
102
RTVSPost2010Prop31
280
     0
102
RTVSPost2010PropOp31
 70
     1
102
RTVSPost2010Prop32
280
     0
102
RTVSPost2010PropOp32
 70
     1
102
RTVSPost2010Prop33
280
     0
102
RTVSPost2010PropOp33
 70
     1
102
RTVSPost2010Prop34
280
     0
102
RTVSPost2010PropOp34
 70
     1
102
RTVSPost2010Prop35
280
     0
102
RTVSPost2010PropOp35
 70
     1
102
RTVSPost2010Prop36
280
     0
102
RTVSPost2010PropOp36
 70
     1
102
RTVSPost2010Prop37
 90
       50
102
RTVSPost2010PropOp37
 70
     1
102
RTVSPost2010Prop38
140
0.0
102
RTVSPost2010PropOp38
 70
     1
102
RTVSPost2010Prop39
140
1.0
102
RTVSPost2010PropOp39
 70
     1
102
RTVSPost2010Prop40
 90
        0
102
RTVSPost2010PropOp40
 70
     1
102
RTVSPost2010Prop41ColorIndex
 90
       18
102
RTVSPost2010Prop41ColorRGB
 90
        0
102
RTVSPost2010PropOp41
 70
     1
102
RTVSPost2010Prop42
 90
       50
102
RTVSPost2010PropOp42
 70
     1
102
RTVSPost2010Prop43
 90
        3
102
RTVSPost2010PropOp43
 70
     1
102
RTVSPost2010Prop44ColorIndex
 90
        5
102
RTVSPost2010Prop44ColorRGB
 90
      255
102
RTVSPost2010PropOp44
 70
     1
102
RTVSPost2010Prop45
280
     0
102
RTVSPost2010PropOp45
 70
     1
102
RTVSPost2010Prop46
 90
       50
102
RTVSPost2010PropOp46
 70
     1
102
RTVSPost2010Prop47
 90
       50
102
RTVSPost2010PropOp47
 70
     1
102
RTVSPost2010Prop48
 90
       50
102
RTVSPost2010PropOp48
 70
     1
102
RTVSPost2010Prop49
280
     0
102
RTVSPost2010PropOp49
 70
     1
102
RTVSPost2010Prop50
 90
       50
102
RTVSPost2010PropOp50
 70
     1
102
RTVSPost2010Prop51ColorIndex
 90
      256
102
RTVSPost2010Prop51ColorRGB
 90
-16777216
102
RTVSPost2010PropOp51
 70
     0
102
RTVSPost2010Prop52
140
1.0
102
RTVSPost2010PropOp52
 70
     0
102
RTVSPost2010Prop53
 90
        2
102
RTVSPost2010PropOp53
 70
     1
102
RTVSPost2010Prop54
  1
strokes_ogs.tif
102
RTVSPost2010PropOp54
 70
     1
102
RTVSPost2010Prop55
280
     0
102
RTVSPost2010PropOp55
 70
     1
102
RTVSPost2010Prop56
140
1.0
102
RTVSPost2010PropOp56
 70
     1
102
RTVSPost2010Prop57
140
1.0
102
RTVSPost2010PropOp57
 70
     1
102
RTVSPropertyOp0
 70
     1
102
RTVSPropertyOp1
 70
     1
102
RTVSPropertyOp2
 70
     1
102
RTVSPropertyOp3
 70
     1
102
RTVSPropertyOp4
 70
     1
102
RTVSPropertyOp5
 70
     1
102
RTVSPropertyOp6
 70
     1
102
RTVSPropertyOp7
 70
     1
102
RTVSPropertyOp8
 70
     1
102
RTVSPropertyOp9
 70
     1
102
RTVSPropertyOp10
 70
     1
102
RTVSPropertyOp11
 70
     1
102
RTVSPropertyOp12
 70
     1
102
RTVSPropertyOp13
 70
     1
102
RTVSPropertyOp14
 70
     1
102
RTVSPropertyOp15
 70
     1
102
RTVSPropertyOp16
 70
     1
102
RTVSPropertyOp17
 70
     1
102
RTVSPropertyOp18
 70
     1
102
RTVSPropertyOp19
 70
     1
102
RTVSPropertyOp20
 70
     1
102
RTVSPropertyOp21
 70
     1
102
RTVSPropertyOp22
 70
     1
102
RTVSPropertyOp23
 70
     1
102
RTVSPropertyOp24
 70
     1
102
RTVSPropertyOp25
 70
     1
102
RTVSPropertyOp26
 70
     1
102
RTVSPropertyOp27
 70
     1
102
RTVSPropertyOp28
 70
     1
102
RTVSPropertyOp29
 70
     1
102
RTVSPropertyOp30
 70
     1
102
RTVSPropertyOp31
 70
     1
102
RTVSPropertyOp32
 70
     1
102
RTVSPropertyOp33
 70
     1
102
RTVSPropertyOp34
 70
     1
102
RTVSPropertyOp35
 70
     1
102
RTVSPropertyOp36
 70
     1
102
RTVSPropertyOp37
 70
     1
102
RTVSPropertyOp38
 70
     1
102
RTVSPropertyOp39
 70
     1
102
RTVSPropertyOp40
 70
     1
102
RTVSPropertyOp41
 70
     1
102
RTVSPropertyOp42
 70
     1
102
RTVSPropertyOp43
 70
     1
102
RTVSPropertyOp44
 70
     1
102
RTVSPropertyOp45
 70
     1
102
RTVSPropertyOp46
 70
     1
102
RTVSPropertyOp47
 70
     1
102
RTVSPropertyOp48
 70
     1
102
RTVSPropertyOp49
 70
     1
102
RTVSPropertyOp50
 70
     1
102
RTVSPropertyOp51
 70
     0
102
RTVSPropertyOp52
 70
     0
102
RTVSPropertyOp53
 70
     1
102
RTVSPropertyOp54
 70
     1
102
RTVSPropertyOp55
 70
     1
102
RTVSPropertyOp56
 70
     1
102
RTVSPropertyOp57
 70
     1
102
RTVSPropertyOp58
 70
     1
102
RTVSPropertyOp59
 70
     1
102
RTVSPropertyOp60
 70
     1
102
RTVSPropertyOp61
 70
     1
102
RTVSPropertyOp62
 70
     1
  0
XRECORD
  5
957B
102
{ACAD_REACTORS
330
957A
102
}
330
957A
100
AcDbXrecord
280
     1
102
RTVSPost2010Prop28
280
     0
102
RTVSPost2010PropOp28
 70
     1
102
RTVSPost2010Prop29
280
     1
102
RTVSPost2010PropOp29
 70
     1
102
RTVSPost2010Prop30
280
     1
102
RTVSPost2010PropOp30
 70
     1
102
RTVSPost2010Prop31
280
     0
102
RTVSPost2010PropOp31
 70
     1
102
RTVSPost2010Prop32
280
     0
102
RTVSPost2010PropOp32
 70
     1
102
RTVSPost2010Prop33
280
     0
102
RTVSPost2010PropOp33
 70
     1
102
RTVSPost2010Prop34
280
     0
102
RTVSPost2010PropOp34
 70
     1
102
RTVSPost2010Prop35
280
     0
102
RTVSPost2010PropOp35
 70
     1
102
RTVSPost2010Prop36
280
     0
102
RTVSPost2010PropOp36
 70
     1
102
RTVSPost2010Prop37
 90
       50
102
RTVSPost2010PropOp37
 70
     1
102
RTVSPost2010Prop38
140
0.0
102
RTVSPost2010PropOp38
 70
     1
102
RTVSPost2010Prop39
140
1.0
102
RTVSPost2010PropOp39
 70
     1
102
RTVSPost2010Prop40
 90
        0
102
RTVSPost2010PropOp40
 70
     1
102
RTVSPost2010Prop41ColorIndex
 90
       18
102
RTVSPost2010Prop41ColorRGB
 90
        0
102
RTVSPost2010PropOp41
 70
     1
102
RTVSPost2010Prop42
 90
       50
102
RTVSPost2010PropOp42
 70
     1
102
RTVSPost2010Prop43
 90
        3
102
RTVSPost2010PropOp43
 70
     1
102
RTVSPost2010Prop44ColorIndex
 90
        5
102
RTVSPost2010Prop44ColorRGB
 90
      255
102
RTVSPost2010PropOp44
 70
     1
102
RTVSPost2010Prop45
280
     0
102
RTVSPost2010PropOp45
 70
     1
102
RTVSPost2010Prop46
 90
       50
102
RTVSPost2010PropOp46
 70
     1
102
RTVSPost2010Prop47
 90
       50
102
RTVSPost2010PropOp47
 70
     1
102
RTVSPost2010Prop48
 90
       50
102
RTVSPost2010PropOp48
 70
     1
102
RTVSPost2010Prop49
280
     0
102
RTVSPost2010PropOp49
 70
     1
102
RTVSPost2010Prop50
 90
       50
102
RTVSPost2010PropOp50
 70
     1
102
RTVSPost2010Prop51ColorIndex
 90
      256
102
RTVSPost2010Prop51ColorRGB
 90
-16777216
102
RTVSPost2010PropOp51
 70
     0
102
RTVSPost2010Prop52
140
1.0
102
RTVSPost2010PropOp52
 70
     0
102
RTVSPost2010Prop53
 90
        2
102
RTVSPost2010PropOp53
 70
     1
102
RTVSPost2010Prop54
  1
strokes_ogs.tif
102
RTVSPost2010PropOp54
 70
     1
102
RTVSPost2010Prop55
280
     0
102
RTVSPost2010PropOp55
 70
     1
102
RTVSPost2010Prop56
140
1.0
102
RTVSPost2010PropOp56
 70
     1
102
RTVSPost2010Prop57
140
1.0
102
RTVSPost2010PropOp57
 70
     1
102
RTVSPropertyOp0
 70
     1
102
RTVSPropertyOp1
 70
     1
102
RTVSPropertyOp2
 70
     1
102
RTVSPropertyOp3
 70
     1
102
RTVSPropertyOp4
 70
     1
102
RTVSPropertyOp5
 70
     1
102
RTVSPropertyOp6
 70
     1
102
RTVSPropertyOp7
 70
     1
102
RTVSPropertyOp8
 70
     1
102
RTVSPropertyOp9
 70
     1
102
RTVSPropertyOp10
 70
     1
102
RTVSPropertyOp11
 70
     1
102
RTVSPropertyOp12
 70
     1
102
RTVSPropertyOp13
 70
     1
102
RTVSPropertyOp14
 70
     1
102
RTVSPropertyOp15
 70
     1
102
RTVSPropertyOp16
 70
     1
102
RTVSPropertyOp17
 70
     1
102
RTVSPropertyOp18
 70
     1
102
RTVSPropertyOp19
 70
     1
102
RTVSPropertyOp20
 70
     1
102
RTVSPropertyOp21
 70
     1
102
RTVSPropertyOp22
 70
     1
102
RTVSPropertyOp23
 70
     1
102
RTVSPropertyOp24
 70
     1
102
RTVSPropertyOp25
 70
     1
102
RTVSPropertyOp26
 70
     1
102
RTVSPropertyOp27
 70
     1
102
RTVSPropertyOp28
 70
     1
102
RTVSPropertyOp29
 70
     1
102
RTVSPropertyOp30
 70
     1
102
RTVSPropertyOp31
 70
     1
102
RTVSPropertyOp32
 70
     1
102
RTVSPropertyOp33
 70
     1
102
RTVSPropertyOp34
 70
     1
102
RTVSPropertyOp35
 70
     1
102
RTVSPropertyOp36
 70
     1
102
RTVSPropertyOp37
 70
     1
102
RTVSPropertyOp38
 70
     1
102
RTVSPropertyOp39
 70
     1
102
RTVSPropertyOp40
 70
     1
102
RTVSPropertyOp41
 70
     1
102
RTVSPropertyOp42
 70
     1
102
RTVSPropertyOp43
 70
     1
102
RTVSPropertyOp44
 70
     1
102
RTVSPropertyOp45
 70
     1
102
RTVSPropertyOp46
 70
     1
102
RTVSPropertyOp47
 70
     1
102
RTVSPropertyOp48
 70
     1
102
RTVSPropertyOp49
 70
     1
102
RTVSPropertyOp50
 70
     1
102
RTVSPropertyOp51
 70
     0
102
RTVSPropertyOp52
 70
     0
102
RTVSPropertyOp53
 70
     1
102
RTVSPropertyOp54
 70
     1
102
RTVSPropertyOp55
 70
     1
102
RTVSPropertyOp56
 70
     1
102
RTVSPropertyOp57
 70
     1
102
RTVSPropertyOp58
 70
     1
102
RTVSPropertyOp59
 70
     1
102
RTVSPropertyOp60
 70
     1
102
RTVSPropertyOp61
 70
     1
102
RTVSPropertyOp62
 70
     1
  0
XRECORD
  5
9577
102
{ACAD_REACTORS
330
9576
102
}
330
9576
100
AcDbXrecord
280
     1
102
RTVSPost2010Prop28
280
     0
102
RTVSPost2010PropOp28
 70
     1
102
RTVSPost2010Prop29
280
     1
102
RTVSPost2010PropOp29
 70
     1
102
RTVSPost2010Prop30
280
     1
102
RTVSPost2010PropOp30
 70
     1
102
RTVSPost2010Prop31
280
     0
102
RTVSPost2010PropOp31
 70
     1
102
RTVSPost2010Prop32
280
     0
102
RTVSPost2010PropOp32
 70
     1
102
RTVSPost2010Prop33
280
     0
102
RTVSPost2010PropOp33
 70
     1
102
RTVSPost2010Prop34
280
     0
102
RTVSPost2010PropOp34
 70
     1
102
RTVSPost2010Prop35
280
     0
102
RTVSPost2010PropOp35
 70
     1
102
RTVSPost2010Prop36
280
     0
102
RTVSPost2010PropOp36
 70
     1
102
RTVSPost2010Prop37
 90
       50
102
RTVSPost2010PropOp37
 70
     1
102
RTVSPost2010Prop38
140
0.0
102
RTVSPost2010PropOp38
 70
     1
102
RTVSPost2010Prop39
140
1.0
102
RTVSPost2010PropOp39
 70
     1
102
RTVSPost2010Prop40
 90
        0
102
RTVSPost2010PropOp40
 70
     1
102
RTVSPost2010Prop41ColorIndex
 90
       18
102
RTVSPost2010Prop41ColorRGB
 90
        0
102
RTVSPost2010PropOp41
 70
     1
102
RTVSPost2010Prop42
 90
       50
102
RTVSPost2010PropOp42
 70
     1
102
RTVSPost2010Prop43
 90
        3
102
RTVSPost2010PropOp43
 70
     1
102
RTVSPost2010Prop44ColorIndex
 90
        5
102
RTVSPost2010Prop44ColorRGB
 90
      255
102
RTVSPost2010PropOp44
 70
     1
102
RTVSPost2010Prop45
280
     0
102
RTVSPost2010PropOp45
 70
     1
102
RTVSPost2010Prop46
 90
       50
102
RTVSPost2010PropOp46
 70
     1
102
RTVSPost2010Prop47
 90
       50
102
RTVSPost2010PropOp47
 70
     1
102
RTVSPost2010Prop48
 90
       50
102
RTVSPost2010PropOp48
 70
     1
102
RTVSPost2010Prop49
280
     0
102
RTVSPost2010PropOp49
 70
     1
102
RTVSPost2010Prop50
 90
       50
102
RTVSPost2010PropOp50
 70
     1
102
RTVSPost2010Prop51ColorIndex
 90
      256
102
RTVSPost2010Prop51ColorRGB
 90
-16777216
102
RTVSPost2010PropOp51
 70
     0
102
RTVSPost2010Prop52
140
1.0
102
RTVSPost2010PropOp52
 70
     0
102
RTVSPost2010Prop53
 90
        2
102
RTVSPost2010PropOp53
 70
     1
102
RTVSPost2010Prop54
  1
strokes_ogs.tif
102
RTVSPost2010PropOp54
 70
     1
102
RTVSPost2010Prop55
280
     0
102
RTVSPost2010PropOp55
 70
     1
102
RTVSPost2010Prop56
140
1.0
102
RTVSPost2010PropOp56
 70
     1
102
RTVSPost2010Prop57
140
1.0
102
RTVSPost2010PropOp57
 70
     1
102
RTVSPropertyOp0
 70
     1
102
RTVSPropertyOp1
 70
     1
102
RTVSPropertyOp2
 70
     1
102
RTVSPropertyOp3
 70
     1
102
RTVSPropertyOp4
 70
     1
102
RTVSPropertyOp5
 70
     1
102
RTVSPropertyOp6
 70
     1
102
RTVSPropertyOp7
 70
     1
102
RTVSPropertyOp8
 70
     1
102
RTVSPropertyOp9
 70
     1
102
RTVSPropertyOp10
 70
     1
102
RTVSPropertyOp11
 70
     1
102
RTVSPropertyOp12
 70
     1
102
RTVSPropertyOp13
 70
     1
102
RTVSPropertyOp14
 70
     1
102
RTVSPropertyOp15
 70
     1
102
RTVSPropertyOp16
 70
     1
102
RTVSPropertyOp17
 70
     1
102
RTVSPropertyOp18
 70
     1
102
RTVSPropertyOp19
 70
     1
102
RTVSPropertyOp20
 70
     1
102
RTVSPropertyOp21
 70
     1
102
RTVSPropertyOp22
 70
     1
102
RTVSPropertyOp23
 70
     1
102
RTVSPropertyOp24
 70
     1
102
RTVSPropertyOp25
 70
     1
102
RTVSPropertyOp26
 70
     1
102
RTVSPropertyOp27
 70
     1
102
RTVSPropertyOp28
 70
     1
102
RTVSPropertyOp29
 70
     1
102
RTVSPropertyOp30
 70
     1
102
RTVSPropertyOp31
 70
     1
102
RTVSPropertyOp32
 70
     1
102
RTVSPropertyOp33
 70
     1
102
RTVSPropertyOp34
 70
     1
102
RTVSPropertyOp35
 70
     1
102
RTVSPropertyOp36
 70
     1
102
RTVSPropertyOp37
 70
     1
102
RTVSPropertyOp38
 70
     1
102
RTVSPropertyOp39
 70
     1
102
RTVSPropertyOp40
 70
     1
102
RTVSPropertyOp41
 70
     1
102
RTVSPropertyOp42
 70
     1
102
RTVSPropertyOp43
 70
     1
102
RTVSPropertyOp44
 70
     1
102
RTVSPropertyOp45
 70
     1
102
RTVSPropertyOp46
 70
     1
102
RTVSPropertyOp47
 70
     1
102
RTVSPropertyOp48
 70
     1
102
RTVSPropertyOp49
 70
     1
102
RTVSPropertyOp50
 70
     1
102
RTVSPropertyOp51
 70
     0
102
RTVSPropertyOp52
 70
     0
102
RTVSPropertyOp53
 70
     1
102
RTVSPropertyOp54
 70
     1
102
RTVSPropertyOp55
 70
     1
102
RTVSPropertyOp56
 70
     1
102
RTVSPropertyOp57
 70
     1
102
RTVSPropertyOp58
 70
     1
102
RTVSPropertyOp59
 70
     1
102
RTVSPropertyOp60
 70
     1
102
RTVSPropertyOp61
 70
     1
102
RTVSPropertyOp62
 70
     1
  0
XRECORD
  5
9585
102
{ACAD_REACTORS
330
9584
102
}
330
9584
100
AcDbXrecord
280
     1
102
RTVSPost2010Prop28
280
     0
102
RTVSPost2010PropOp28
 70
     1
102
RTVSPost2010Prop29
280
     1
102
RTVSPost2010PropOp29
 70
     1
102
RTVSPost2010Prop30
280
     1
102
RTVSPost2010PropOp30
 70
     1
102
RTVSPost2010Prop31
280
     0
102
RTVSPost2010PropOp31
 70
     1
102
RTVSPost2010Prop32
280
     0
102
RTVSPost2010PropOp32
 70
     1
102
RTVSPost2010Prop33
280
     0
102
RTVSPost2010PropOp33
 70
     1
102
RTVSPost2010Prop34
280
     0
102
RTVSPost2010PropOp34
 70
     1
102
RTVSPost2010Prop35
280
     0
102
RTVSPost2010PropOp35
 70
     1
102
RTVSPost2010Prop36
280
     0
102
RTVSPost2010PropOp36
 70
     1
102
RTVSPost2010Prop37
 90
       50
102
RTVSPost2010PropOp37
 70
     1
102
RTVSPost2010Prop38
140
0.0
102
RTVSPost2010PropOp38
 70
     1
102
RTVSPost2010Prop39
140
1.0
102
RTVSPost2010PropOp39
 70
     1
102
RTVSPost2010Prop40
 90
        0
102
RTVSPost2010PropOp40
 70
     1
102
RTVSPost2010Prop41ColorIndex
 90
       18
102
RTVSPost2010Prop41ColorRGB
 90
        0
102
RTVSPost2010PropOp41
 70
     1
102
RTVSPost2010Prop42
 90
       50
102
RTVSPost2010PropOp42
 70
     1
102
RTVSPost2010Prop43
 90
        3
102
RTVSPost2010PropOp43
 70
     1
102
RTVSPost2010Prop44ColorIndex
 90
        5
102
RTVSPost2010Prop44ColorRGB
 90
      255
102
RTVSPost2010PropOp44
 70
     1
102
RTVSPost2010Prop45
280
     0
102
RTVSPost2010PropOp45
 70
     1
102
RTVSPost2010Prop46
 90
       50
102
RTVSPost2010PropOp46
 70
     1
102
RTVSPost2010Prop47
 90
       50
102
RTVSPost2010PropOp47
 70
     1
102
RTVSPost2010Prop48
 90
       50
102
RTVSPost2010PropOp48
 70
     1
102
RTVSPost2010Prop49
280
     0
102
RTVSPost2010PropOp49
 70
     1
102
RTVSPost2010Prop50
 90
       50
102
RTVSPost2010PropOp50
 70
     1
102
RTVSPost2010Prop51ColorIndex
 90
      256
102
RTVSPost2010Prop51ColorRGB
 90
-16777216
102
RTVSPost2010PropOp51
 70
     0
102
RTVSPost2010Prop52
140
1.0
102
RTVSPost2010PropOp52
 70
     0
102
RTVSPost2010Prop53
 90
        2
102
RTVSPost2010PropOp53
 70
     1
102
RTVSPost2010Prop54
  1
strokes_ogs.tif
102
RTVSPost2010PropOp54
 70
     1
102
RTVSPost2010Prop55
280
     0
102
RTVSPost2010PropOp55
 70
     1
102
RTVSPost2010Prop56
140
1.0
102
RTVSPost2010PropOp56
 70
     1
102
RTVSPost2010Prop57
140
1.0
102
RTVSPost2010PropOp57
 70
     1
102
RTVSPropertyOp0
 70
     1
102
RTVSPropertyOp1
 70
     1
102
RTVSPropertyOp2
 70
     1
102
RTVSPropertyOp3
 70
     1
102
RTVSPropertyOp4
 70
     1
102
RTVSPropertyOp5
 70
     1
102
RTVSPropertyOp6
 70
     1
102
RTVSPropertyOp7
 70
     1
102
RTVSPropertyOp8
 70
     1
102
RTVSPropertyOp9
 70
     1
102
RTVSPropertyOp10
 70
     1
102
RTVSPropertyOp11
 70
     1
102
RTVSPropertyOp12
 70
     1
102
RTVSPropertyOp13
 70
     1
102
RTVSPropertyOp14
 70
     1
102
RTVSPropertyOp15
 70
     1
102
RTVSPropertyOp16
 70
     1
102
RTVSPropertyOp17
 70
     1
102
RTVSPropertyOp18
 70
     1
102
RTVSPropertyOp19
 70
     1
102
RTVSPropertyOp20
 70
     1
102
RTVSPropertyOp21
 70
     1
102
RTVSPropertyOp22
 70
     1
102
RTVSPropertyOp23
 70
     1
102
RTVSPropertyOp24
 70
     1
102
RTVSPropertyOp25
 70
     1
102
RTVSPropertyOp26
 70
     1
102
RTVSPropertyOp27
 70
     1
102
RTVSPropertyOp28
 70
     1
102
RTVSPropertyOp29
 70
     1
102
RTVSPropertyOp30
 70
     1
102
RTVSPropertyOp31
 70
     1
102
RTVSPropertyOp32
 70
     1
102
RTVSPropertyOp33
 70
     1
102
RTVSPropertyOp34
 70
     1
102
RTVSPropertyOp35
 70
     1
102
RTVSPropertyOp36
 70
     1
102
RTVSPropertyOp37
 70
     1
102
RTVSPropertyOp38
 70
     1
102
RTVSPropertyOp39
 70
     1
102
RTVSPropertyOp40
 70
     1
102
RTVSPropertyOp41
 70
     1
102
RTVSPropertyOp42
 70
     1
102
RTVSPropertyOp43
 70
     1
102
RTVSPropertyOp44
 70
     1
102
RTVSPropertyOp45
 70
     1
102
RTVSPropertyOp46
 70
     1
102
RTVSPropertyOp47
 70
     1
102
RTVSPropertyOp48
 70
     1
102
RTVSPropertyOp49
 70
     1
102
RTVSPropertyOp50
 70
     1
102
RTVSPropertyOp51
 70
     0
102
RTVSPropertyOp52
 70
     0
102
RTVSPropertyOp53
 70
     1
102
RTVSPropertyOp54
 70
     1
102
RTVSPropertyOp55
 70
     1
102
RTVSPropertyOp56
 70
     1
102
RTVSPropertyOp57
 70
     1
102
RTVSPropertyOp58
 70
     1
102
RTVSPropertyOp59
 70
     1
102
RTVSPropertyOp60
 70
     1
102
RTVSPropertyOp61
 70
     1
102
RTVSPropertyOp62
 70
     1
  0
XRECORD
  5
958D
102
{ACAD_REACTORS
330
958C
102
}
330
958C
100
AcDbXrecord
280
     1
102
RTVSPost2010Prop28
280
     0
102
RTVSPost2010PropOp28
 70
     1
102
RTVSPost2010Prop29
280
     1
102
RTVSPost2010PropOp29
 70
     1
102
RTVSPost2010Prop30
280
     1
102
RTVSPost2010PropOp30
 70
     1
102
RTVSPost2010Prop31
280
     0
102
RTVSPost2010PropOp31
 70
     1
102
RTVSPost2010Prop32
280
     0
102
RTVSPost2010PropOp32
 70
     1
102
RTVSPost2010Prop33
280
     0
102
RTVSPost2010PropOp33
 70
     1
102
RTVSPost2010Prop34
280
     0
102
RTVSPost2010PropOp34
 70
     1
102
RTVSPost2010Prop35
280
     0
102
RTVSPost2010PropOp35
 70
     1
102
RTVSPost2010Prop36
280
     0
102
RTVSPost2010PropOp36
 70
     1
102
RTVSPost2010Prop37
 90
       50
102
RTVSPost2010PropOp37
 70
     1
102
RTVSPost2010Prop38
140
0.0
102
RTVSPost2010PropOp38
 70
     1
102
RTVSPost2010Prop39
140
1.0
102
RTVSPost2010PropOp39
 70
     1
102
RTVSPost2010Prop40
 90
        0
102
RTVSPost2010PropOp40
 70
     1
102
RTVSPost2010Prop41ColorIndex
 90
       18
102
RTVSPost2010Prop41ColorRGB
 90
        0
102
RTVSPost2010PropOp41
 70
     1
102
RTVSPost2010Prop42
 90
       50
102
RTVSPost2010PropOp42
 70
     1
102
RTVSPost2010Prop43
 90
        3
102
RTVSPost2010PropOp43
 70
     1
102
RTVSPost2010Prop44ColorIndex
 90
        5
102
RTVSPost2010Prop44ColorRGB
 90
      255
102
RTVSPost2010PropOp44
 70
     1
102
RTVSPost2010Prop45
280
     0
102
RTVSPost2010PropOp45
 70
     1
102
RTVSPost2010Prop46
 90
       50
102
RTVSPost2010PropOp46
 70
     1
102
RTVSPost2010Prop47
 90
       50
102
RTVSPost2010PropOp47
 70
     1
102
RTVSPost2010Prop48
 90
       50
102
RTVSPost2010PropOp48
 70
     1
102
RTVSPost2010Prop49
280
     0
102
RTVSPost2010PropOp49
 70
     1
102
RTVSPost2010Prop50
 90
       50
102
RTVSPost2010PropOp50
 70
     1
102
RTVSPost2010Prop51ColorIndex
 90
      256
102
RTVSPost2010Prop51ColorRGB
 90
-16777216
102
RTVSPost2010PropOp51
 70
     0
102
RTVSPost2010Prop52
140
1.0
102
RTVSPost2010PropOp52
 70
     0
102
RTVSPost2010Prop53
 90
        2
102
RTVSPost2010PropOp53
 70
     1
102
RTVSPost2010Prop54
  1
strokes_ogs.tif
102
RTVSPost2010PropOp54
 70
     1
102
RTVSPost2010Prop55
280
     0
102
RTVSPost2010PropOp55
 70
     1
102
RTVSPost2010Prop56
140
1.0
102
RTVSPost2010PropOp56
 70
     1
102
RTVSPost2010Prop57
140
1.0
102
RTVSPost2010PropOp57
 70
     1
102
RTVSPropertyOp0
 70
     1
102
RTVSPropertyOp1
 70
     1
102
RTVSPropertyOp2
 70
     1
102
RTVSPropertyOp3
 70
     1
102
RTVSPropertyOp4
 70
     1
102
RTVSPropertyOp5
 70
     1
102
RTVSPropertyOp6
 70
     1
102
RTVSPropertyOp7
 70
     1
102
RTVSPropertyOp8
 70
     1
102
RTVSPropertyOp9
 70
     1
102
RTVSPropertyOp10
 70
     1
102
RTVSPropertyOp11
 70
     1
102
RTVSPropertyOp12
 70
     1
102
RTVSPropertyOp13
 70
     1
102
RTVSPropertyOp14
 70
     1
102
RTVSPropertyOp15
 70
     1
102
RTVSPropertyOp16
 70
     1
102
RTVSPropertyOp17
 70
     1
102
RTVSPropertyOp18
 70
     1
102
RTVSPropertyOp19
 70
     1
102
RTVSPropertyOp20
 70
     1
102
RTVSPropertyOp21
 70
     1
102
RTVSPropertyOp22
 70
     1
102
RTVSPropertyOp23
 70
     1
102
RTVSPropertyOp24
 70
     1
102
RTVSPropertyOp25
 70
     1
102
RTVSPropertyOp26
 70
     1
102
RTVSPropertyOp27
 70
     1
102
RTVSPropertyOp28
 70
     1
102
RTVSPropertyOp29
 70
     1
102
RTVSPropertyOp30
 70
     1
102
RTVSPropertyOp31
 70
     1
102
RTVSPropertyOp32
 70
     1
102
RTVSPropertyOp33
 70
     1
102
RTVSPropertyOp34
 70
     1
102
RTVSPropertyOp35
 70
     1
102
RTVSPropertyOp36
 70
     1
102
RTVSPropertyOp37
 70
     1
102
RTVSPropertyOp38
 70
     1
102
RTVSPropertyOp39
 70
     1
102
RTVSPropertyOp40
 70
     1
102
RTVSPropertyOp41
 70
     1
102
RTVSPropertyOp42
 70
     1
102
RTVSPropertyOp43
 70
     1
102
RTVSPropertyOp44
 70
     1
102
RTVSPropertyOp45
 70
     1
102
RTVSPropertyOp46
 70
     1
102
RTVSPropertyOp47
 70
     1
102
RTVSPropertyOp48
 70
     1
102
RTVSPropertyOp49
 70
     1
102
RTVSPropertyOp50
 70
     1
102
RTVSPropertyOp51
 70
     0
102
RTVSPropertyOp52
 70
     0
102
RTVSPropertyOp53
 70
     1
102
RTVSPropertyOp54
 70
     1
102
RTVSPropertyOp55
 70
     1
102
RTVSPropertyOp56
 70
     1
102
RTVSPropertyOp57
 70
     1
102
RTVSPropertyOp58
 70
     1
102
RTVSPropertyOp59
 70
     1
102
RTVSPropertyOp60
 70
     1
102
RTVSPropertyOp61
 70
     1
102
RTVSPropertyOp62
 70
     1
  0
XRECORD
  5
957F
102
{ACAD_REACTORS
330
957E
102
}
330
957E
100
AcDbXrecord
280
     1
102
RTVSPost2010Prop28
280
     0
102
RTVSPost2010PropOp28
 70
     1
102
RTVSPost2010Prop29
280
     1
102
RTVSPost2010PropOp29
 70
     1
102
RTVSPost2010Prop30
280
     1
102
RTVSPost2010PropOp30
 70
     1
102
RTVSPost2010Prop31
280
     0
102
RTVSPost2010PropOp31
 70
     1
102
RTVSPost2010Prop32
280
     0
102
RTVSPost2010PropOp32
 70
     1
102
RTVSPost2010Prop33
280
     0
102
RTVSPost2010PropOp33
 70
     1
102
RTVSPost2010Prop34
280
     0
102
RTVSPost2010PropOp34
 70
     1
102
RTVSPost2010Prop35
280
     0
102
RTVSPost2010PropOp35
 70
     1
102
RTVSPost2010Prop36
280
     0
102
RTVSPost2010PropOp36
 70
     1
102
RTVSPost2010Prop37
 90
       50
102
RTVSPost2010PropOp37
 70
     1
102
RTVSPost2010Prop38
140
0.0
102
RTVSPost2010PropOp38
 70
     1
102
RTVSPost2010Prop39
140
1.0
102
RTVSPost2010PropOp39
 70
     1
102
RTVSPost2010Prop40
 90
        0
102
RTVSPost2010PropOp40
 70
     1
102
RTVSPost2010Prop41ColorIndex
 90
       18
102
RTVSPost2010Prop41ColorRGB
 90
        0
102
RTVSPost2010PropOp41
 70
     1
102
RTVSPost2010Prop42
 90
       50
102
RTVSPost2010PropOp42
 70
     1
102
RTVSPost2010Prop43
 90
        3
102
RTVSPost2010PropOp43
 70
     1
102
RTVSPost2010Prop44ColorIndex
 90
        5
102
RTVSPost2010Prop44ColorRGB
 90
      255
102
RTVSPost2010PropOp44
 70
     1
102
RTVSPost2010Prop45
280
     0
102
RTVSPost2010PropOp45
 70
     1
102
RTVSPost2010Prop46
 90
       50
102
RTVSPost2010PropOp46
 70
     1
102
RTVSPost2010Prop47
 90
       50
102
RTVSPost2010PropOp47
 70
     1
102
RTVSPost2010Prop48
 90
       50
102
RTVSPost2010PropOp48
 70
     1
102
RTVSPost2010Prop49
280
     0
102
RTVSPost2010PropOp49
 70
     1
102
RTVSPost2010Prop50
 90
       50
102
RTVSPost2010PropOp50
 70
     1
102
RTVSPost2010Prop51ColorIndex
 90
      256
102
RTVSPost2010Prop51ColorRGB
 90
-16777216
102
RTVSPost2010PropOp51
 70
     0
102
RTVSPost2010Prop52
140
1.0
102
RTVSPost2010PropOp52
 70
     0
102
RTVSPost2010Prop53
 90
        2
102
RTVSPost2010PropOp53
 70
     1
102
RTVSPost2010Prop54
  1
strokes_ogs.tif
102
RTVSPost2010PropOp54
 70
     1
102
RTVSPost2010Prop55
280
     0
102
RTVSPost2010PropOp55
 70
     1
102
RTVSPost2010Prop56
140
1.0
102
RTVSPost2010PropOp56
 70
     1
102
RTVSPost2010Prop57
140
1.0
102
RTVSPost2010PropOp57
 70
     1
102
RTVSPropertyOp0
 70
     1
102
RTVSPropertyOp1
 70
     1
102
RTVSPropertyOp2
 70
     1
102
RTVSPropertyOp3
 70
     1
102
RTVSPropertyOp4
 70
     1
102
RTVSPropertyOp5
 70
     1
102
RTVSPropertyOp6
 70
     1
102
RTVSPropertyOp7
 70
     1
102
RTVSPropertyOp8
 70
     1
102
RTVSPropertyOp9
 70
     1
102
RTVSPropertyOp10
 70
     1
102
RTVSPropertyOp11
 70
     1
102
RTVSPropertyOp12
 70
     1
102
RTVSPropertyOp13
 70
     1
102
RTVSPropertyOp14
 70
     1
102
RTVSPropertyOp15
 70
     1
102
RTVSPropertyOp16
 70
     1
102
RTVSPropertyOp17
 70
     1
102
RTVSPropertyOp18
 70
     1
102
RTVSPropertyOp19
 70
     1
102
RTVSPropertyOp20
 70
     1
102
RTVSPropertyOp21
 70
     1
102
RTVSPropertyOp22
 70
     1
102
RTVSPropertyOp23
 70
     1
102
RTVSPropertyOp24
 70
     1
102
RTVSPropertyOp25
 70
     1
102
RTVSPropertyOp26
 70
     1
102
RTVSPropertyOp27
 70
     1
102
RTVSPropertyOp28
 70
     1
102
RTVSPropertyOp29
 70
     1
102
RTVSPropertyOp30
 70
     1
102
RTVSPropertyOp31
 70
     1
102
RTVSPropertyOp32
 70
     1
102
RTVSPropertyOp33
 70
     1
102
RTVSPropertyOp34
 70
     1
102
RTVSPropertyOp35
 70
     1
102
RTVSPropertyOp36
 70
     1
102
RTVSPropertyOp37
 70
     1
102
RTVSPropertyOp38
 70
     1
102
RTVSPropertyOp39
 70
     1
102
RTVSPropertyOp40
 70
     1
102
RTVSPropertyOp41
 70
     1
102
RTVSPropertyOp42
 70
     1
102
RTVSPropertyOp43
 70
     1
102
RTVSPropertyOp44
 70
     1
102
RTVSPropertyOp45
 70
     1
102
RTVSPropertyOp46
 70
     1
102
RTVSPropertyOp47
 70
     1
102
RTVSPropertyOp48
 70
     1
102
RTVSPropertyOp49
 70
     1
102
RTVSPropertyOp50
 70
     1
102
RTVSPropertyOp51
 70
     0
102
RTVSPropertyOp52
 70
     0
102
RTVSPropertyOp53
 70
     1
102
RTVSPropertyOp54
 70
     1
102
RTVSPropertyOp55
 70
     1
102
RTVSPropertyOp56
 70
     1
102
RTVSPropertyOp57
 70
     1
102
RTVSPropertyOp58
 70
     1
102
RTVSPropertyOp59
 70
     1
102
RTVSPropertyOp60
 70
     1
102
RTVSPropertyOp61
 70
     1
102
RTVSPropertyOp62
 70
     1
  0
XRECORD
  5
9583
102
{ACAD_REACTORS
330
9582
102
}
330
9582
100
AcDbXrecord
280
     1
102
RTVSPost2010Prop28
280
     0
102
RTVSPost2010PropOp28
 70
     1
102
RTVSPost2010Prop29
280
     1
102
RTVSPost2010PropOp29
 70
     1
102
RTVSPost2010Prop30
280
     1
102
RTVSPost2010PropOp30
 70
     1
102
RTVSPost2010Prop31
280
     0
102
RTVSPost2010PropOp31
 70
     1
102
RTVSPost2010Prop32
280
     0
102
RTVSPost2010PropOp32
 70
     1
102
RTVSPost2010Prop33
280
     0
102
RTVSPost2010PropOp33
 70
     1
102
RTVSPost2010Prop34
280
     0
102
RTVSPost2010PropOp34
 70
     1
102
RTVSPost2010Prop35
280
     0
102
RTVSPost2010PropOp35
 70
     1
102
RTVSPost2010Prop36
280
     0
102
RTVSPost2010PropOp36
 70
     1
102
RTVSPost2010Prop37
 90
       50
102
RTVSPost2010PropOp37
 70
     1
102
RTVSPost2010Prop38
140
0.0
102
RTVSPost2010PropOp38
 70
     1
102
RTVSPost2010Prop39
140
1.0
102
RTVSPost2010PropOp39
 70
     1
102
RTVSPost2010Prop40
 90
        0
102
RTVSPost2010PropOp40
 70
     1
102
RTVSPost2010Prop41ColorIndex
 90
       18
102
RTVSPost2010Prop41ColorRGB
 90
        0
102
RTVSPost2010PropOp41
 70
     1
102
RTVSPost2010Prop42
 90
       50
102
RTVSPost2010PropOp42
 70
     1
102
RTVSPost2010Prop43
 90
        3
102
RTVSPost2010PropOp43
 70
     1
102
RTVSPost2010Prop44ColorIndex
 90
        5
102
RTVSPost2010Prop44ColorRGB
 90
      255
102
RTVSPost2010PropOp44
 70
     1
102
RTVSPost2010Prop45
280
     0
102
RTVSPost2010PropOp45
 70
     1
102
RTVSPost2010Prop46
 90
       50
102
RTVSPost2010PropOp46
 70
     1
102
RTVSPost2010Prop47
 90
       50
102
RTVSPost2010PropOp47
 70
     1
102
RTVSPost2010Prop48
 90
       50
102
RTVSPost2010PropOp48
 70
     1
102
RTVSPost2010Prop49
280
     0
102
RTVSPost2010PropOp49
 70
     1
102
RTVSPost2010Prop50
 90
       50
102
RTVSPost2010PropOp50
 70
     1
102
RTVSPost2010Prop51ColorIndex
 90
      256
102
RTVSPost2010Prop51ColorRGB
 90
-16777216
102
RTVSPost2010PropOp51
 70
     0
102
RTVSPost2010Prop52
140
1.0
102
RTVSPost2010PropOp52
 70
     0
102
RTVSPost2010Prop53
 90
        2
102
RTVSPost2010PropOp53
 70
     1
102
RTVSPost2010Prop54
  1
strokes_ogs.tif
102
RTVSPost2010PropOp54
 70
     1
102
RTVSPost2010Prop55
280
     0
102
RTVSPost2010PropOp55
 70
     1
102
RTVSPost2010Prop56
140
1.0
102
RTVSPost2010PropOp56
 70
     1
102
RTVSPost2010Prop57
140
1.0
102
RTVSPost2010PropOp57
 70
     1
102
RTVSPropertyOp0
 70
     1
102
RTVSPropertyOp1
 70
     1
102
RTVSPropertyOp2
 70
     1
102
RTVSPropertyOp3
 70
     1
102
RTVSPropertyOp4
 70
     1
102
RTVSPropertyOp5
 70
     1
102
RTVSPropertyOp6
 70
     1
102
RTVSPropertyOp7
 70
     1
102
RTVSPropertyOp8
 70
     1
102
RTVSPropertyOp9
 70
     1
102
RTVSPropertyOp10
 70
     1
102
RTVSPropertyOp11
 70
     1
102
RTVSPropertyOp12
 70
     1
102
RTVSPropertyOp13
 70
     1
102
RTVSPropertyOp14
 70
     1
102
RTVSPropertyOp15
 70
     1
102
RTVSPropertyOp16
 70
     1
102
RTVSPropertyOp17
 70
     1
102
RTVSPropertyOp18
 70
     1
102
RTVSPropertyOp19
 70
     1
102
RTVSPropertyOp20
 70
     1
102
RTVSPropertyOp21
 70
     1
102
RTVSPropertyOp22
 70
     1
102
RTVSPropertyOp23
 70
     1
102
RTVSPropertyOp24
 70
     1
102
RTVSPropertyOp25
 70
     1
102
RTVSPropertyOp26
 70
     1
102
RTVSPropertyOp27
 70
     1
102
RTVSPropertyOp28
 70
     1
102
RTVSPropertyOp29
 70
     1
102
RTVSPropertyOp30
 70
     1
102
RTVSPropertyOp31
 70
     1
102
RTVSPropertyOp32
 70
     1
102
RTVSPropertyOp33
 70
     1
102
RTVSPropertyOp34
 70
     1
102
RTVSPropertyOp35
 70
     1
102
RTVSPropertyOp36
 70
     1
102
RTVSPropertyOp37
 70
     1
102
RTVSPropertyOp38
 70
     1
102
RTVSPropertyOp39
 70
     1
102
RTVSPropertyOp40
 70
     1
102
RTVSPropertyOp41
 70
     1
102
RTVSPropertyOp42
 70
     1
102
RTVSPropertyOp43
 70
     1
102
RTVSPropertyOp44
 70
     1
102
RTVSPropertyOp45
 70
     1
102
RTVSPropertyOp46
 70
     1
102
RTVSPropertyOp47
 70
     1
102
RTVSPropertyOp48
 70
     1
102
RTVSPropertyOp49
 70
     1
102
RTVSPropertyOp50
 70
     1
102
RTVSPropertyOp51
 70
     0
102
RTVSPropertyOp52
 70
     0
102
RTVSPropertyOp53
 70
     1
102
RTVSPropertyOp54
 70
     1
102
RTVSPropertyOp55
 70
     1
102
RTVSPropertyOp56
 70
     1
102
RTVSPropertyOp57
 70
     1
102
RTVSPropertyOp58
 70
     1
102
RTVSPropertyOp59
 70
     1
102
RTVSPropertyOp60
 70
     1
102
RTVSPropertyOp61
 70
     1
102
RTVSPropertyOp62
 70
     1
  0
XRECORD
  5
95A2
102
{ACAD_REACTORS
330
95A1
102
}
330
95A1
100
AcDbXrecord
280
     1
102
RTVSPost2010Prop28
280
     0
102
RTVSPost2010PropOp28
 70
     0
102
RTVSPost2010Prop29
280
     1
102
RTVSPost2010PropOp29
 70
     0
102
RTVSPost2010Prop30
280
     1
102
RTVSPost2010PropOp30
 70
     0
102
RTVSPost2010Prop31
280
     0
102
RTVSPost2010PropOp31
 70
     0
102
RTVSPost2010Prop32
280
     0
102
RTVSPost2010PropOp32
 70
     0
102
RTVSPost2010Prop33
280
     0
102
RTVSPost2010PropOp33
 70
     0
102
RTVSPost2010Prop34
280
     0
102
RTVSPost2010PropOp34
 70
     0
102
RTVSPost2010Prop35
280
     0
102
RTVSPost2010PropOp35
 70
     0
102
RTVSPost2010Prop36
280
     0
102
RTVSPost2010PropOp36
 70
     0
102
RTVSPost2010Prop37
 90
       50
102
RTVSPost2010PropOp37
 70
     0
102
RTVSPost2010Prop38
140
0.0
102
RTVSPost2010PropOp38
 70
     0
102
RTVSPost2010Prop39
140
1.0
102
RTVSPost2010PropOp39
 70
     0
102
RTVSPost2010Prop40
 90
        0
102
RTVSPost2010PropOp40
 70
     0
102
RTVSPost2010Prop41ColorIndex
 90
       18
102
RTVSPost2010Prop41ColorRGB
 90
        0
102
RTVSPost2010PropOp41
 70
     0
102
RTVSPost2010Prop42
 90
       50
102
RTVSPost2010PropOp42
 70
     0
102
RTVSPost2010Prop43
 90
        3
102
RTVSPost2010PropOp43
 70
     0
102
RTVSPost2010Prop44ColorIndex
 90
        5
102
RTVSPost2010Prop44ColorRGB
 90
      255
102
RTVSPost2010PropOp44
 70
     0
102
RTVSPost2010Prop45
280
     0
102
RTVSPost2010PropOp45
 70
     0
102
RTVSPost2010Prop46
 90
       50
102
RTVSPost2010PropOp46
 70
     0
102
RTVSPost2010Prop47
 90
       50
102
RTVSPost2010PropOp47
 70
     0
102
RTVSPost2010Prop48
 90
       50
102
RTVSPost2010PropOp48
 70
     0
102
RTVSPost2010Prop49
280
     0
102
RTVSPost2010PropOp49
 70
     0
102
RTVSPost2010Prop50
 90
       50
102
RTVSPost2010PropOp50
 70
     0
102
RTVSPost2010Prop51ColorIndex
 90
      256
102
RTVSPost2010Prop51ColorRGB
 90
-16777216
102
RTVSPost2010PropOp51
 70
     0
102
RTVSPost2010Prop52
140
1.0
102
RTVSPost2010PropOp52
 70
     0
102
RTVSPost2010Prop53
 90
        2
102
RTVSPost2010PropOp53
 70
     0
102
RTVSPost2010Prop54
  1
strokes_ogs.tif
102
RTVSPost2010PropOp54
 70
     0
102
RTVSPost2010Prop55
280
     0
102
RTVSPost2010PropOp55
 70
     0
102
RTVSPost2010Prop56
140
1.0
102
RTVSPost2010PropOp56
 70
     0
102
RTVSPost2010Prop57
140
1.0
102
RTVSPost2010PropOp57
 70
     0
102
RTVSPropertyOp0
 70
     0
102
RTVSPropertyOp1
 70
     0
102
RTVSPropertyOp2
 70
     0
102
RTVSPropertyOp3
 70
     0
102
RTVSPropertyOp4
 70
     0
102
RTVSPropertyOp5
 70
     0
102
RTVSPropertyOp6
 70
     0
102
RTVSPropertyOp7
 70
     0
102
RTVSPropertyOp8
 70
     0
102
RTVSPropertyOp9
 70
     0
102
RTVSPropertyOp10
 70
     0
102
RTVSPropertyOp11
 70
     0
102
RTVSPropertyOp12
 70
     0
102
RTVSPropertyOp13
 70
     0
102
RTVSPropertyOp14
 70
     2
102
RTVSPropertyOp15
 70
     0
102
RTVSPropertyOp16
 70
     0
102
RTVSPropertyOp17
 70
     0
102
RTVSPropertyOp18
 70
     0
102
RTVSPropertyOp19
 70
     0
102
RTVSPropertyOp20
 70
     0
102
RTVSPropertyOp21
 70
     0
102
RTVSPropertyOp22
 70
     0
102
RTVSPropertyOp23
 70
     0
102
RTVSPropertyOp24
 70
     0
102
RTVSPropertyOp25
 70
     0
102
RTVSPropertyOp26
 70
     0
102
RTVSPropertyOp27
 70
     0
102
RTVSPropertyOp28
 70
     0
102
RTVSPropertyOp29
 70
     0
102
RTVSPropertyOp30
 70
     0
102
RTVSPropertyOp31
 70
     0
102
RTVSPropertyOp32
 70
     0
102
RTVSPropertyOp33
 70
     0
102
RTVSPropertyOp34
 70
     0
102
RTVSPropertyOp35
 70
     0
102
RTVSPropertyOp36
 70
     0
102
RTVSPropertyOp37
 70
     0
102
RTVSPropertyOp38
 70
     0
102
RTVSPropertyOp39
 70
     0
102
RTVSPropertyOp40
 70
     0
102
RTVSPropertyOp41
 70
     0
102
RTVSPropertyOp42
 70
     0
102
RTVSPropertyOp43
 70
     0
102
RTVSPropertyOp44
 70
     0
102
RTVSPropertyOp45
 70
     0
102
RTVSPropertyOp46
 70
     0
102
RTVSPropertyOp47
 70
     0
102
RTVSPropertyOp48
 70
     0
102
RTVSPropertyOp49
 70
     0
102
RTVSPropertyOp50
 70
     0
102
RTVSPropertyOp51
 70
     0
102
RTVSPropertyOp52
 70
     0
102
RTVSPropertyOp53
 70
     0
102
RTVSPropertyOp54
 70
     0
102
RTVSPropertyOp55
 70
     0
102
RTVSPropertyOp56
 70
     0
102
RTVSPropertyOp57
 70
     0
102
RTVSPropertyOp58
 70
     0
102
RTVSPropertyOp59
 70
     0
102
RTVSPropertyOp60
 70
     0
102
RTVSPropertyOp61
 70
     0
102
RTVSPropertyOp62
 70
     0
  0
XRECORD
  5
958B
102
{ACAD_REACTORS
330
958A
102
}
330
958A
100
AcDbXrecord
280
     1
102
RTVSPost2010Prop28
280
     0
102
RTVSPost2010PropOp28
 70
     1
102
RTVSPost2010Prop29
280
     1
102
RTVSPost2010PropOp29
 70
     1
102
RTVSPost2010Prop30
280
     1
102
RTVSPost2010PropOp30
 70
     1
102
RTVSPost2010Prop31
280
     0
102
RTVSPost2010PropOp31
 70
     1
102
RTVSPost2010Prop32
280
     0
102
RTVSPost2010PropOp32
 70
     1
102
RTVSPost2010Prop33
280
     0
102
RTVSPost2010PropOp33
 70
     1
102
RTVSPost2010Prop34
280
     0
102
RTVSPost2010PropOp34
 70
     1
102
RTVSPost2010Prop35
280
     0
102
RTVSPost2010PropOp35
 70
     1
102
RTVSPost2010Prop36
280
     0
102
RTVSPost2010PropOp36
 70
     1
102
RTVSPost2010Prop37
 90
       50
102
RTVSPost2010PropOp37
 70
     1
102
RTVSPost2010Prop38
140
0.0
102
RTVSPost2010PropOp38
 70
     1
102
RTVSPost2010Prop39
140
1.0
102
RTVSPost2010PropOp39
 70
     1
102
RTVSPost2010Prop40
 90
        0
102
RTVSPost2010PropOp40
 70
     1
102
RTVSPost2010Prop41ColorIndex
 90
       18
102
RTVSPost2010Prop41ColorRGB
 90
        0
102
RTVSPost2010PropOp41
 70
     1
102
RTVSPost2010Prop42
 90
       50
102
RTVSPost2010PropOp42
 70
     1
102
RTVSPost2010Prop43
 90
        3
102
RTVSPost2010PropOp43
 70
     1
102
RTVSPost2010Prop44ColorIndex
 90
        5
102
RTVSPost2010Prop44ColorRGB
 90
      255
102
RTVSPost2010PropOp44
 70
     1
102
RTVSPost2010Prop45
280
     0
102
RTVSPost2010PropOp45
 70
     1
102
RTVSPost2010Prop46
 90
       50
102
RTVSPost2010PropOp46
 70
     1
102
RTVSPost2010Prop47
 90
       50
102
RTVSPost2010PropOp47
 70
     1
102
RTVSPost2010Prop48
 90
       50
102
RTVSPost2010PropOp48
 70
     1
102
RTVSPost2010Prop49
280
     0
102
RTVSPost2010PropOp49
 70
     1
102
RTVSPost2010Prop50
 90
       50
102
RTVSPost2010PropOp50
 70
     1
102
RTVSPost2010Prop51ColorIndex
 90
      256
102
RTVSPost2010Prop51ColorRGB
 90
-16777216
102
RTVSPost2010PropOp51
 70
     0
102
RTVSPost2010Prop52
140
1.0
102
RTVSPost2010PropOp52
 70
     0
102
RTVSPost2010Prop53
 90
        2
102
RTVSPost2010PropOp53
 70
     1
102
RTVSPost2010Prop54
  1
strokes_ogs.tif
102
RTVSPost2010PropOp54
 70
     1
102
RTVSPost2010Prop55
280
     0
102
RTVSPost2010PropOp55
 70
     1
102
RTVSPost2010Prop56
140
1.0
102
RTVSPost2010PropOp56
 70
     1
102
RTVSPost2010Prop57
140
1.0
102
RTVSPost2010PropOp57
 70
     1
102
RTVSPropertyOp0
 70
     1
102
RTVSPropertyOp1
 70
     1
102
RTVSPropertyOp2
 70
     1
102
RTVSPropertyOp3
 70
     1
102
RTVSPropertyOp4
 70
     1
102
RTVSPropertyOp5
 70
     1
102
RTVSPropertyOp6
 70
     1
102
RTVSPropertyOp7
 70
     1
102
RTVSPropertyOp8
 70
     1
102
RTVSPropertyOp9
 70
     1
102
RTVSPropertyOp10
 70
     1
102
RTVSPropertyOp11
 70
     1
102
RTVSPropertyOp12
 70
     1
102
RTVSPropertyOp13
 70
     1
102
RTVSPropertyOp14
 70
     1
102
RTVSPropertyOp15
 70
     1
102
RTVSPropertyOp16
 70
     1
102
RTVSPropertyOp17
 70
     1
102
RTVSPropertyOp18
 70
     1
102
RTVSPropertyOp19
 70
     1
102
RTVSPropertyOp20
 70
     1
102
RTVSPropertyOp21
 70
     1
102
RTVSPropertyOp22
 70
     1
102
RTVSPropertyOp23
 70
     1
102
RTVSPropertyOp24
 70
     1
102
RTVSPropertyOp25
 70
     1
102
RTVSPropertyOp26
 70
     1
102
RTVSPropertyOp27
 70
     1
102
RTVSPropertyOp28
 70
     1
102
RTVSPropertyOp29
 70
     1
102
RTVSPropertyOp30
 70
     1
102
RTVSPropertyOp31
 70
     1
102
RTVSPropertyOp32
 70
     1
102
RTVSPropertyOp33
 70
     1
102
RTVSPropertyOp34
 70
     1
102
RTVSPropertyOp35
 70
     1
102
RTVSPropertyOp36
 70
     1
102
RTVSPropertyOp37
 70
     1
102
RTVSPropertyOp38
 70
     1
102
RTVSPropertyOp39
 70
     1
102
RTVSPropertyOp40
 70
     1
102
RTVSPropertyOp41
 70
     1
102
RTVSPropertyOp42
 70
     1
102
RTVSPropertyOp43
 70
     1
102
RTVSPropertyOp44
 70
     1
102
RTVSPropertyOp45
 70
     1
102
RTVSPropertyOp46
 70
     1
102
RTVSPropertyOp47
 70
     1
102
RTVSPropertyOp48
 70
     1
102
RTVSPropertyOp49
 70
     1
102
RTVSPropertyOp50
 70
     1
102
RTVSPropertyOp51
 70
     0
102
RTVSPropertyOp52
 70
     0
102
RTVSPropertyOp53
 70
     1
102
RTVSPropertyOp54
 70
     1
102
RTVSPropertyOp55
 70
     1
102
RTVSPropertyOp56
 70
     1
102
RTVSPropertyOp57
 70
     1
102
RTVSPropertyOp58
 70
     1
102
RTVSPropertyOp59
 70
     1
102
RTVSPropertyOp60
 70
     1
102
RTVSPropertyOp61
 70
     1
102
RTVSPropertyOp62
 70
     1
  0
XRECORD
  5
956F
102
{ACAD_REACTORS
330
956E
102
}
330
956E
100
AcDbXrecord
280
     1
102
RTVSPost2010Prop28
280
     0
102
RTVSPost2010PropOp28
 70
     1
102
RTVSPost2010Prop29
280
     1
102
RTVSPost2010PropOp29
 70
     1
102
RTVSPost2010Prop30
280
     1
102
RTVSPost2010PropOp30
 70
     1
102
RTVSPost2010Prop31
280
     0
102
RTVSPost2010PropOp31
 70
     1
102
RTVSPost2010Prop32
280
     0
102
RTVSPost2010PropOp32
 70
     1
102
RTVSPost2010Prop33
280
     0
102
RTVSPost2010PropOp33
 70
     1
102
RTVSPost2010Prop34
280
     0
102
RTVSPost2010PropOp34
 70
     1
102
RTVSPost2010Prop35
280
     0
102
RTVSPost2010PropOp35
 70
     1
102
RTVSPost2010Prop36
280
     0
102
RTVSPost2010PropOp36
 70
     1
102
RTVSPost2010Prop37
 90
       50
102
RTVSPost2010PropOp37
 70
     1
102
RTVSPost2010Prop38
140
0.0
102
RTVSPost2010PropOp38
 70
     1
102
RTVSPost2010Prop39
140
1.0
102
RTVSPost2010PropOp39
 70
     1
102
RTVSPost2010Prop40
 90
        0
102
RTVSPost2010PropOp40
 70
     1
102
RTVSPost2010Prop41ColorIndex
 90
       18
102
RTVSPost2010Prop41ColorRGB
 90
        0
102
RTVSPost2010PropOp41
 70
     1
102
RTVSPost2010Prop42
 90
       50
102
RTVSPost2010PropOp42
 70
     1
102
RTVSPost2010Prop43
 90
        3
102
RTVSPost2010PropOp43
 70
     1
102
RTVSPost2010Prop44ColorIndex
 90
        5
102
RTVSPost2010Prop44ColorRGB
 90
      255
102
RTVSPost2010PropOp44
 70
     1
102
RTVSPost2010Prop45
280
     0
102
RTVSPost2010PropOp45
 70
     1
102
RTVSPost2010Prop46
 90
       50
102
RTVSPost2010PropOp46
 70
     1
102
RTVSPost2010Prop47
 90
       50
102
RTVSPost2010PropOp47
 70
     1
102
RTVSPost2010Prop48
 90
       50
102
RTVSPost2010PropOp48
 70
     1
102
RTVSPost2010Prop49
280
     0
102
RTVSPost2010PropOp49
 70
     1
102
RTVSPost2010Prop50
 90
       50
102
RTVSPost2010PropOp50
 70
     1
102
RTVSPost2010Prop51ColorIndex
 90
      256
102
RTVSPost2010Prop51ColorRGB
 90
-16777216
102
RTVSPost2010PropOp51
 70
     0
102
RTVSPost2010Prop52
140
1.0
102
RTVSPost2010PropOp52
 70
     0
102
RTVSPost2010Prop53
 90
        2
102
RTVSPost2010PropOp53
 70
     1
102
RTVSPost2010Prop54
  1
strokes_ogs.tif
102
RTVSPost2010PropOp54
 70
     1
102
RTVSPost2010Prop55
280
     0
102
RTVSPost2010PropOp55
 70
     1
102
RTVSPost2010Prop56
140
1.0
102
RTVSPost2010PropOp56
 70
     1
102
RTVSPost2010Prop57
140
1.0
102
RTVSPost2010PropOp57
 70
     1
102
RTVSPropertyOp0
 70
     1
102
RTVSPropertyOp1
 70
     1
102
RTVSPropertyOp2
 70
     1
102
RTVSPropertyOp3
 70
     1
102
RTVSPropertyOp4
 70
     1
102
RTVSPropertyOp5
 70
     1
102
RTVSPropertyOp6
 70
     1
102
RTVSPropertyOp7
 70
     1
102
RTVSPropertyOp8
 70
     1
102
RTVSPropertyOp9
 70
     1
102
RTVSPropertyOp10
 70
     1
102
RTVSPropertyOp11
 70
     1
102
RTVSPropertyOp12
 70
     1
102
RTVSPropertyOp13
 70
     1
102
RTVSPropertyOp14
 70
     1
102
RTVSPropertyOp15
 70
     1
102
RTVSPropertyOp16
 70
     1
102
RTVSPropertyOp17
 70
     1
102
RTVSPropertyOp18
 70
     1
102
RTVSPropertyOp19
 70
     1
102
RTVSPropertyOp20
 70
     1
102
RTVSPropertyOp21
 70
     1
102
RTVSPropertyOp22
 70
     1
102
RTVSPropertyOp23
 70
     1
102
RTVSPropertyOp24
 70
     1
102
RTVSPropertyOp25
 70
     1
102
RTVSPropertyOp26
 70
     1
102
RTVSPropertyOp27
 70
     1
102
RTVSPropertyOp28
 70
     1
102
RTVSPropertyOp29
 70
     1
102
RTVSPropertyOp30
 70
     1
102
RTVSPropertyOp31
 70
     1
102
RTVSPropertyOp32
 70
     1
102
RTVSPropertyOp33
 70
     1
102
RTVSPropertyOp34
 70
     1
102
RTVSPropertyOp35
 70
     1
102
RTVSPropertyOp36
 70
     1
102
RTVSPropertyOp37
 70
     1
102
RTVSPropertyOp38
 70
     1
102
RTVSPropertyOp39
 70
     1
102
RTVSPropertyOp40
 70
     1
102
RTVSPropertyOp41
 70
     1
102
RTVSPropertyOp42
 70
     1
102
RTVSPropertyOp43
 70
     1
102
RTVSPropertyOp44
 70
     1
102
RTVSPropertyOp45
 70
     1
102
RTVSPropertyOp46
 70
     1
102
RTVSPropertyOp47
 70
     1
102
RTVSPropertyOp48
 70
     1
102
RTVSPropertyOp49
 70
     1
102
RTVSPropertyOp50
 70
     1
102
RTVSPropertyOp51
 70
     0
102
RTVSPropertyOp52
 70
     0
102
RTVSPropertyOp53
 70
     1
102
RTVSPropertyOp54
 70
     1
102
RTVSPropertyOp55
 70
     1
102
RTVSPropertyOp56
 70
     1
102
RTVSPropertyOp57
 70
     1
102
RTVSPropertyOp58
 70
     1
102
RTVSPropertyOp59
 70
     1
102
RTVSPropertyOp60
 70
     1
102
RTVSPropertyOp61
 70
     1
102
RTVSPropertyOp62
 70
     1
  0
XRECORD
  5
9571
102
{ACAD_REACTORS
330
9570
102
}
330
9570
100
AcDbXrecord
280
     1
102
RTVSPost2010Prop28
280
     0
102
RTVSPost2010PropOp28
 70
     1
102
RTVSPost2010Prop29
280
     1
102
RTVSPost2010PropOp29
 70
     1
102
RTVSPost2010Prop30
280
     1
102
RTVSPost2010PropOp30
 70
     1
102
RTVSPost2010Prop31
280
     0
102
RTVSPost2010PropOp31
 70
     1
102
RTVSPost2010Prop32
280
     0
102
RTVSPost2010PropOp32
 70
     1
102
RTVSPost2010Prop33
280
     0
102
RTVSPost2010PropOp33
 70
     1
102
RTVSPost2010Prop34
280
     0
102
RTVSPost2010PropOp34
 70
     1
102
RTVSPost2010Prop35
280
     0
102
RTVSPost2010PropOp35
 70
     1
102
RTVSPost2010Prop36
280
     0
102
RTVSPost2010PropOp36
 70
     1
102
RTVSPost2010Prop37
 90
       50
102
RTVSPost2010PropOp37
 70
     1
102
RTVSPost2010Prop38
140
0.0
102
RTVSPost2010PropOp38
 70
     1
102
RTVSPost2010Prop39
140
1.0
102
RTVSPost2010PropOp39
 70
     1
102
RTVSPost2010Prop40
 90
        0
102
RTVSPost2010PropOp40
 70
     1
102
RTVSPost2010Prop41ColorIndex
 90
       18
102
RTVSPost2010Prop41ColorRGB
 90
        0
102
RTVSPost2010PropOp41
 70
     1
102
RTVSPost2010Prop42
 90
       50
102
RTVSPost2010PropOp42
 70
     1
102
RTVSPost2010Prop43
 90
        3
102
RTVSPost2010PropOp43
 70
     1
102
RTVSPost2010Prop44ColorIndex
 90
        5
102
RTVSPost2010Prop44ColorRGB
 90
      255
102
RTVSPost2010PropOp44
 70
     1
102
RTVSPost2010Prop45
280
     0
102
RTVSPost2010PropOp45
 70
     1
102
RTVSPost2010Prop46
 90
       50
102
RTVSPost2010PropOp46
 70
     1
102
RTVSPost2010Prop47
 90
       50
102
RTVSPost2010PropOp47
 70
     1
102
RTVSPost2010Prop48
 90
       50
102
RTVSPost2010PropOp48
 70
     1
102
RTVSPost2010Prop49
280
     0
102
RTVSPost2010PropOp49
 70
     1
102
RTVSPost2010Prop50
 90
       50
102
RTVSPost2010PropOp50
 70
     1
102
RTVSPost2010Prop51ColorIndex
 90
      256
102
RTVSPost2010Prop51ColorRGB
 90
-16777216
102
RTVSPost2010PropOp51
 70
     0
102
RTVSPost2010Prop52
140
1.0
102
RTVSPost2010PropOp52
 70
     0
102
RTVSPost2010Prop53
 90
        2
102
RTVSPost2010PropOp53
 70
     1
102
RTVSPost2010Prop54
  1
strokes_ogs.tif
102
RTVSPost2010PropOp54
 70
     1
102
RTVSPost2010Prop55
280
     0
102
RTVSPost2010PropOp55
 70
     1
102
RTVSPost2010Prop56
140
1.0
102
RTVSPost2010PropOp56
 70
     1
102
RTVSPost2010Prop57
140
1.0
102
RTVSPost2010PropOp57
 70
     1
102
RTVSPropertyOp0
 70
     1
102
RTVSPropertyOp1
 70
     1
102
RTVSPropertyOp2
 70
     1
102
RTVSPropertyOp3
 70
     1
102
RTVSPropertyOp4
 70
     1
102
RTVSPropertyOp5
 70
     1
102
RTVSPropertyOp6
 70
     1
102
RTVSPropertyOp7
 70
     1
102
RTVSPropertyOp8
 70
     1
102
RTVSPropertyOp9
 70
     1
102
RTVSPropertyOp10
 70
     1
102
RTVSPropertyOp11
 70
     1
102
RTVSPropertyOp12
 70
     1
102
RTVSPropertyOp13
 70
     1
102
RTVSPropertyOp14
 70
     1
102
RTVSPropertyOp15
 70
     1
102
RTVSPropertyOp16
 70
     1
102
RTVSPropertyOp17
 70
     1
102
RTVSPropertyOp18
 70
     1
102
RTVSPropertyOp19
 70
     1
102
RTVSPropertyOp20
 70
     1
102
RTVSPropertyOp21
 70
     1
102
RTVSPropertyOp22
 70
     1
102
RTVSPropertyOp23
 70
     1
102
RTVSPropertyOp24
 70
     1
102
RTVSPropertyOp25
 70
     1
102
RTVSPropertyOp26
 70
     1
102
RTVSPropertyOp27
 70
     1
102
RTVSPropertyOp28
 70
     1
102
RTVSPropertyOp29
 70
     1
102
RTVSPropertyOp30
 70
     1
102
RTVSPropertyOp31
 70
     1
102
RTVSPropertyOp32
 70
     1
102
RTVSPropertyOp33
 70
     1
102
RTVSPropertyOp34
 70
     1
102
RTVSPropertyOp35
 70
     1
102
RTVSPropertyOp36
 70
     1
102
RTVSPropertyOp37
 70
     1
102
RTVSPropertyOp38
 70
     1
102
RTVSPropertyOp39
 70
     1
102
RTVSPropertyOp40
 70
     1
102
RTVSPropertyOp41
 70
     1
102
RTVSPropertyOp42
 70
     1
102
RTVSPropertyOp43
 70
     1
102
RTVSPropertyOp44
 70
     1
102
RTVSPropertyOp45
 70
     1
102
RTVSPropertyOp46
 70
     1
102
RTVSPropertyOp47
 70
     1
102
RTVSPropertyOp48
 70
     1
102
RTVSPropertyOp49
 70
     1
102
RTVSPropertyOp50
 70
     1
102
RTVSPropertyOp51
 70
     0
102
RTVSPropertyOp52
 70
     0
102
RTVSPropertyOp53
 70
     1
102
RTVSPropertyOp54
 70
     1
102
RTVSPropertyOp55
 70
     1
102
RTVSPropertyOp56
 70
     1
102
RTVSPropertyOp57
 70
     1
102
RTVSPropertyOp58
 70
     1
102
RTVSPropertyOp59
 70
     1
102
RTVSPropertyOp60
 70
     1
102
RTVSPropertyOp61
 70
     1
102
RTVSPropertyOp62
 70
     1
  0
XRECORD
  5
9573
102
{ACAD_REACTORS
330
9572
102
}
330
9572
100
AcDbXrecord
280
     1
102
RTVSPost2010Prop28
280
     0
102
RTVSPost2010PropOp28
 70
     1
102
RTVSPost2010Prop29
280
     1
102
RTVSPost2010PropOp29
 70
     1
102
RTVSPost2010Prop30
280
     1
102
RTVSPost2010PropOp30
 70
     1
102
RTVSPost2010Prop31
280
     0
102
RTVSPost2010PropOp31
 70
     1
102
RTVSPost2010Prop32
280
     0
102
RTVSPost2010PropOp32
 70
     1
102
RTVSPost2010Prop33
280
     0
102
RTVSPost2010PropOp33
 70
     1
102
RTVSPost2010Prop34
280
     0
102
RTVSPost2010PropOp34
 70
     1
102
RTVSPost2010Prop35
280
     0
102
RTVSPost2010PropOp35
 70
     1
102
RTVSPost2010Prop36
280
     0
102
RTVSPost2010PropOp36
 70
     1
102
RTVSPost2010Prop37
 90
       50
102
RTVSPost2010PropOp37
 70
     1
102
RTVSPost2010Prop38
140
0.0
102
RTVSPost2010PropOp38
 70
     1
102
RTVSPost2010Prop39
140
1.0
102
RTVSPost2010PropOp39
 70
     1
102
RTVSPost2010Prop40
 90
        0
102
RTVSPost2010PropOp40
 70
     1
102
RTVSPost2010Prop41ColorIndex
 90
       18
102
RTVSPost2010Prop41ColorRGB
 90
        0
102
RTVSPost2010PropOp41
 70
     1
102
RTVSPost2010Prop42
 90
       50
102
RTVSPost2010PropOp42
 70
     1
102
RTVSPost2010Prop43
 90
        3
102
RTVSPost2010PropOp43
 70
     1
102
RTVSPost2010Prop44ColorIndex
 90
        5
102
RTVSPost2010Prop44ColorRGB
 90
      255
102
RTVSPost2010PropOp44
 70
     1
102
RTVSPost2010Prop45
280
     0
102
RTVSPost2010PropOp45
 70
     1
102
RTVSPost2010Prop46
 90
       50
102
RTVSPost2010PropOp46
 70
     1
102
RTVSPost2010Prop47
 90
       50
102
RTVSPost2010PropOp47
 70
     1
102
RTVSPost2010Prop48
 90
       50
102
RTVSPost2010PropOp48
 70
     1
102
RTVSPost2010Prop49
280
     0
102
RTVSPost2010PropOp49
 70
     1
102
RTVSPost2010Prop50
 90
       50
102
RTVSPost2010PropOp50
 70
     1
102
RTVSPost2010Prop51ColorIndex
 90
      256
102
RTVSPost2010Prop51ColorRGB
 90
-16777216
102
RTVSPost2010PropOp51
 70
     0
102
RTVSPost2010Prop52
140
1.0
102
RTVSPost2010PropOp52
 70
     0
102
RTVSPost2010Prop53
 90
        2
102
RTVSPost2010PropOp53
 70
     1
102
RTVSPost2010Prop54
  1
strokes_ogs.tif
102
RTVSPost2010PropOp54
 70
     1
102
RTVSPost2010Prop55
280
     0
102
RTVSPost2010PropOp55
 70
     1
102
RTVSPost2010Prop56
140
1.0
102
RTVSPost2010PropOp56
 70
     1
102
RTVSPost2010Prop57
140
1.0
102
RTVSPost2010PropOp57
 70
     1
102
RTVSPropertyOp0
 70
     1
102
RTVSPropertyOp1
 70
     1
102
RTVSPropertyOp2
 70
     1
102
RTVSPropertyOp3
 70
     1
102
RTVSPropertyOp4
 70
     1
102
RTVSPropertyOp5
 70
     1
102
RTVSPropertyOp6
 70
     1
102
RTVSPropertyOp7
 70
     1
102
RTVSPropertyOp8
 70
     1
102
RTVSPropertyOp9
 70
     1
102
RTVSPropertyOp10
 70
     1
102
RTVSPropertyOp11
 70
     1
102
RTVSPropertyOp12
 70
     1
102
RTVSPropertyOp13
 70
     1
102
RTVSPropertyOp14
 70
     1
102
RTVSPropertyOp15
 70
     1
102
RTVSPropertyOp16
 70
     1
102
RTVSPropertyOp17
 70
     1
102
RTVSPropertyOp18
 70
     1
102
RTVSPropertyOp19
 70
     1
102
RTVSPropertyOp20
 70
     1
102
RTVSPropertyOp21
 70
     1
102
RTVSPropertyOp22
 70
     1
102
RTVSPropertyOp23
 70
     1
102
RTVSPropertyOp24
 70
     1
102
RTVSPropertyOp25
 70
     1
102
RTVSPropertyOp26
 70
     1
102
RTVSPropertyOp27
 70
     1
102
RTVSPropertyOp28
 70
     1
102
RTVSPropertyOp29
 70
     1
102
RTVSPropertyOp30
 70
     1
102
RTVSPropertyOp31
 70
     1
102
RTVSPropertyOp32
 70
     1
102
RTVSPropertyOp33
 70
     1
102
RTVSPropertyOp34
 70
     1
102
RTVSPropertyOp35
 70
     1
102
RTVSPropertyOp36
 70
     1
102
RTVSPropertyOp37
 70
     1
102
RTVSPropertyOp38
 70
     1
102
RTVSPropertyOp39
 70
     1
102
RTVSPropertyOp40
 70
     1
102
RTVSPropertyOp41
 70
     1
102
RTVSPropertyOp42
 70
     1
102
RTVSPropertyOp43
 70
     1
102
RTVSPropertyOp44
 70
     1
102
RTVSPropertyOp45
 70
     1
102
RTVSPropertyOp46
 70
     1
102
RTVSPropertyOp47
 70
     1
102
RTVSPropertyOp48
 70
     1
102
RTVSPropertyOp49
 70
     1
102
RTVSPropertyOp50
 70
     1
102
RTVSPropertyOp51
 70
     0
102
RTVSPropertyOp52
 70
     0
102
RTVSPropertyOp53
 70
     1
102
RTVSPropertyOp54
 70
     1
102
RTVSPropertyOp55
 70
     1
102
RTVSPropertyOp56
 70
     1
102
RTVSPropertyOp57
 70
     1
102
RTVSPropertyOp58
 70
     1
102
RTVSPropertyOp59
 70
     1
102
RTVSPropertyOp60
 70
     1
102
RTVSPropertyOp61
 70
     1
102
RTVSPropertyOp62
 70
     1
  0
XRECORD
  5
9575
102
{ACAD_REACTORS
330
9574
102
}
330
9574
100
AcDbXrecord
280
     1
102
RTVSPost2010Prop28
280
     0
102
RTVSPost2010PropOp28
 70
     1
102
RTVSPost2010Prop29
280
     1
102
RTVSPost2010PropOp29
 70
     1
102
RTVSPost2010Prop30
280
     1
102
RTVSPost2010PropOp30
 70
     1
102
RTVSPost2010Prop31
280
     0
102
RTVSPost2010PropOp31
 70
     1
102
RTVSPost2010Prop32
280
     0
102
RTVSPost2010PropOp32
 70
     1
102
RTVSPost2010Prop33
280
     0
102
RTVSPost2010PropOp33
 70
     1
102
RTVSPost2010Prop34
280
     0
102
RTVSPost2010PropOp34
 70
     1
102
RTVSPost2010Prop35
280
     0
102
RTVSPost2010PropOp35
 70
     1
102
RTVSPost2010Prop36
280
     0
102
RTVSPost2010PropOp36
 70
     1
102
RTVSPost2010Prop37
 90
       50
102
RTVSPost2010PropOp37
 70
     1
102
RTVSPost2010Prop38
140
0.0
102
RTVSPost2010PropOp38
 70
     1
102
RTVSPost2010Prop39
140
1.0
102
RTVSPost2010PropOp39
 70
     1
102
RTVSPost2010Prop40
 90
        0
102
RTVSPost2010PropOp40
 70
     1
102
RTVSPost2010Prop41ColorIndex
 90
       18
102
RTVSPost2010Prop41ColorRGB
 90
        0
102
RTVSPost2010PropOp41
 70
     1
102
RTVSPost2010Prop42
 90
       50
102
RTVSPost2010PropOp42
 70
     1
102
RTVSPost2010Prop43
 90
        3
102
RTVSPost2010PropOp43
 70
     1
102
RTVSPost2010Prop44ColorIndex
 90
        5
102
RTVSPost2010Prop44ColorRGB
 90
      255
102
RTVSPost2010PropOp44
 70
     1
102
RTVSPost2010Prop45
280
     0
102
RTVSPost2010PropOp45
 70
     1
102
RTVSPost2010Prop46
 90
       50
102
RTVSPost2010PropOp46
 70
     1
102
RTVSPost2010Prop47
 90
       50
102
RTVSPost2010PropOp47
 70
     1
102
RTVSPost2010Prop48
 90
       50
102
RTVSPost2010PropOp48
 70
     1
102
RTVSPost2010Prop49
280
     0
102
RTVSPost2010PropOp49
 70
     1
102
RTVSPost2010Prop50
 90
       50
102
RTVSPost2010PropOp50
 70
     1
102
RTVSPost2010Prop51ColorIndex
 90
      256
102
RTVSPost2010Prop51ColorRGB
 90
-16777216
102
RTVSPost2010PropOp51
 70
     0
102
RTVSPost2010Prop52
140
1.0
102
RTVSPost2010PropOp52
 70
     0
102
RTVSPost2010Prop53
 90
        2
102
RTVSPost2010PropOp53
 70
     1
102
RTVSPost2010Prop54
  1
strokes_ogs.tif
102
RTVSPost2010PropOp54
 70
     1
102
RTVSPost2010Prop55
280
     0
102
RTVSPost2010PropOp55
 70
     1
102
RTVSPost2010Prop56
140
1.0
102
RTVSPost2010PropOp56
 70
     1
102
RTVSPost2010Prop57
140
1.0
102
RTVSPost2010PropOp57
 70
     1
102
RTVSPropertyOp0
 70
     1
102
RTVSPropertyOp1
 70
     1
102
RTVSPropertyOp2
 70
     1
102
RTVSPropertyOp3
 70
     1
102
RTVSPropertyOp4
 70
     1
102
RTVSPropertyOp5
 70
     1
102
RTVSPropertyOp6
 70
     1
102
RTVSPropertyOp7
 70
     1
102
RTVSPropertyOp8
 70
     1
102
RTVSPropertyOp9
 70
     1
102
RTVSPropertyOp10
 70
     1
102
RTVSPropertyOp11
 70
     1
102
RTVSPropertyOp12
 70
     1
102
RTVSPropertyOp13
 70
     1
102
RTVSPropertyOp14
 70
     1
102
RTVSPropertyOp15
 70
     1
102
RTVSPropertyOp16
 70
     1
102
RTVSPropertyOp17
 70
     1
102
RTVSPropertyOp18
 70
     1
102
RTVSPropertyOp19
 70
     1
102
RTVSPropertyOp20
 70
     1
102
RTVSPropertyOp21
 70
     1
102
RTVSPropertyOp22
 70
     1
102
RTVSPropertyOp23
 70
     1
102
RTVSPropertyOp24
 70
     1
102
RTVSPropertyOp25
 70
     1
102
RTVSPropertyOp26
 70
     1
102
RTVSPropertyOp27
 70
     1
102
RTVSPropertyOp28
 70
     1
102
RTVSPropertyOp29
 70
     1
102
RTVSPropertyOp30
 70
     1
102
RTVSPropertyOp31
 70
     1
102
RTVSPropertyOp32
 70
     1
102
RTVSPropertyOp33
 70
     1
102
RTVSPropertyOp34
 70
     1
102
RTVSPropertyOp35
 70
     1
102
RTVSPropertyOp36
 70
     1
102
RTVSPropertyOp37
 70
     1
102
RTVSPropertyOp38
 70
     1
102
RTVSPropertyOp39
 70
     1
102
RTVSPropertyOp40
 70
     1
102
RTVSPropertyOp41
 70
     1
102
RTVSPropertyOp42
 70
     1
102
RTVSPropertyOp43
 70
     1
102
RTVSPropertyOp44
 70
     1
102
RTVSPropertyOp45
 70
     1
102
RTVSPropertyOp46
 70
     1
102
RTVSPropertyOp47
 70
     1
102
RTVSPropertyOp48
 70
     1
102
RTVSPropertyOp49
 70
     1
102
RTVSPropertyOp50
 70
     1
102
RTVSPropertyOp51
 70
     0
102
RTVSPropertyOp52
 70
     0
102
RTVSPropertyOp53
 70
     1
102
RTVSPropertyOp54
 70
     1
102
RTVSPropertyOp55
 70
     1
102
RTVSPropertyOp56
 70
     1
102
RTVSPropertyOp57
 70
     1
102
RTVSPropertyOp58
 70
     1
102
RTVSPropertyOp59
 70
     1
102
RTVSPropertyOp60
 70
     1
102
RTVSPropertyOp61
 70
     1
102
RTVSPropertyOp62
 70
     1
  0
XRECORD
  5
9592
102
{ACAD_REACTORS
330
9591
102
}
330
9591
100
AcDbXrecord
280
     1
102
RTVSPost2010Prop28
280
     0
102
RTVSPost2010PropOp28
 70
     1
102
RTVSPost2010Prop29
280
     1
102
RTVSPost2010PropOp29
 70
     1
102
RTVSPost2010Prop30
280
     1
102
RTVSPost2010PropOp30
 70
     1
102
RTVSPost2010Prop31
280
     0
102
RTVSPost2010PropOp31
 70
     1
102
RTVSPost2010Prop32
280
     0
102
RTVSPost2010PropOp32
 70
     1
102
RTVSPost2010Prop33
280
     0
102
RTVSPost2010PropOp33
 70
     1
102
RTVSPost2010Prop34
280
     0
102
RTVSPost2010PropOp34
 70
     1
102
RTVSPost2010Prop35
280
     0
102
RTVSPost2010PropOp35
 70
     1
102
RTVSPost2010Prop36
280
     0
102
RTVSPost2010PropOp36
 70
     1
102
RTVSPost2010Prop37
 90
       50
102
RTVSPost2010PropOp37
 70
     1
102
RTVSPost2010Prop38
140
0.0
102
RTVSPost2010PropOp38
 70
     1
102
RTVSPost2010Prop39
140
1.0
102
RTVSPost2010PropOp39
 70
     1
102
RTVSPost2010Prop40
 90
        0
102
RTVSPost2010PropOp40
 70
     1
102
RTVSPost2010Prop41ColorIndex
 90
       18
102
RTVSPost2010Prop41ColorRGB
 90
        0
102
RTVSPost2010PropOp41
 70
     1
102
RTVSPost2010Prop42
 90
       50
102
RTVSPost2010PropOp42
 70
     1
102
RTVSPost2010Prop43
 90
        3
102
RTVSPost2010PropOp43
 70
     1
102
RTVSPost2010Prop44ColorIndex
 90
        5
102
RTVSPost2010Prop44ColorRGB
 90
      255
102
RTVSPost2010PropOp44
 70
     1
102
RTVSPost2010Prop45
280
     0
102
RTVSPost2010PropOp45
 70
     1
102
RTVSPost2010Prop46
 90
       50
102
RTVSPost2010PropOp46
 70
     1
102
RTVSPost2010Prop47
 90
       50
102
RTVSPost2010PropOp47
 70
     1
102
RTVSPost2010Prop48
 90
       50
102
RTVSPost2010PropOp48
 70
     1
102
RTVSPost2010Prop49
280
     0
102
RTVSPost2010PropOp49
 70
     1
102
RTVSPost2010Prop50
 90
       50
102
RTVSPost2010PropOp50
 70
     1
102
RTVSPost2010Prop51ColorIndex
 90
      256
102
RTVSPost2010Prop51ColorRGB
 90
-16777216
102
RTVSPost2010PropOp51
 70
     0
102
RTVSPost2010Prop52
140
1.0
102
RTVSPost2010PropOp52
 70
     0
102
RTVSPost2010Prop53
 90
        2
102
RTVSPost2010PropOp53
 70
     1
102
RTVSPost2010Prop54
  1
strokes_ogs.tif
102
RTVSPost2010PropOp54
 70
     1
102
RTVSPost2010Prop55
280
     0
102
RTVSPost2010PropOp55
 70
     1
102
RTVSPost2010Prop56
140
1.0
102
RTVSPost2010PropOp56
 70
     1
102
RTVSPost2010Prop57
140
1.0
102
RTVSPost2010PropOp57
 70
     1
102
RTVSPropertyOp0
 70
     1
102
RTVSPropertyOp1
 70
     1
102
RTVSPropertyOp2
 70
     1
102
RTVSPropertyOp3
 70
     1
102
RTVSPropertyOp4
 70
     1
102
RTVSPropertyOp5
 70
     1
102
RTVSPropertyOp6
 70
     1
102
RTVSPropertyOp7
 70
     1
102
RTVSPropertyOp8
 70
     1
102
RTVSPropertyOp9
 70
     1
102
RTVSPropertyOp10
 70
     1
102
RTVSPropertyOp11
 70
     1
102
RTVSPropertyOp12
 70
     1
102
RTVSPropertyOp13
 70
     1
102
RTVSPropertyOp14
 70
     1
102
RTVSPropertyOp15
 70
     1
102
RTVSPropertyOp16
 70
     1
102
RTVSPropertyOp17
 70
     1
102
RTVSPropertyOp18
 70
     1
102
RTVSPropertyOp19
 70
     1
102
RTVSPropertyOp20
 70
     1
102
RTVSPropertyOp21
 70
     1
102
RTVSPropertyOp22
 70
     1
102
RTVSPropertyOp23
 70
     1
102
RTVSPropertyOp24
 70
     1
102
RTVSPropertyOp25
 70
     1
102
RTVSPropertyOp26
 70
     1
102
RTVSPropertyOp27
 70
     1
102
RTVSPropertyOp28
 70
     1
102
RTVSPropertyOp29
 70
     1
102
RTVSPropertyOp30
 70
     1
102
RTVSPropertyOp31
 70
     1
102
RTVSPropertyOp32
 70
     1
102
RTVSPropertyOp33
 70
     1
102
RTVSPropertyOp34
 70
     1
102
RTVSPropertyOp35
 70
     1
102
RTVSPropertyOp36
 70
     1
102
RTVSPropertyOp37
 70
     1
102
RTVSPropertyOp38
 70
     1
102
RTVSPropertyOp39
 70
     1
102
RTVSPropertyOp40
 70
     1
102
RTVSPropertyOp41
 70
     1
102
RTVSPropertyOp42
 70
     1
102
RTVSPropertyOp43
 70
     1
102
RTVSPropertyOp44
 70
     1
102
RTVSPropertyOp45
 70
     1
102
RTVSPropertyOp46
 70
     1
102
RTVSPropertyOp47
 70
     1
102
RTVSPropertyOp48
 70
     1
102
RTVSPropertyOp49
 70
     1
102
RTVSPropertyOp50
 70
     1
102
RTVSPropertyOp51
 70
     0
102
RTVSPropertyOp52
 70
     0
102
RTVSPropertyOp53
 70
     1
102
RTVSPropertyOp54
 70
     1
102
RTVSPropertyOp55
 70
     1
102
RTVSPropertyOp56
 70
     1
102
RTVSPropertyOp57
 70
     1
102
RTVSPropertyOp58
 70
     1
102
RTVSPropertyOp59
 70
     1
102
RTVSPropertyOp60
 70
     1
102
RTVSPropertyOp61
 70
     1
102
RTVSPropertyOp62
 70
     1
  0
XRECORD
  5
959E
102
{ACAD_REACTORS
330
959D
102
}
330
959D
100
AcDbXrecord
280
     1
102
RTVSPost2010Prop28
280
     0
102
RTVSPost2010PropOp28
 70
     0
102
RTVSPost2010Prop29
280
     1
102
RTVSPost2010PropOp29
 70
     0
102
RTVSPost2010Prop30
280
     1
102
RTVSPost2010PropOp30
 70
     0
102
RTVSPost2010Prop31
280
     0
102
RTVSPost2010PropOp31
 70
     0
102
RTVSPost2010Prop32
280
     0
102
RTVSPost2010PropOp32
 70
     0
102
RTVSPost2010Prop33
280
     0
102
RTVSPost2010PropOp33
 70
     0
102
RTVSPost2010Prop34
280
     0
102
RTVSPost2010PropOp34
 70
     0
102
RTVSPost2010Prop35
280
     0
102
RTVSPost2010PropOp35
 70
     0
102
RTVSPost2010Prop36
280
     0
102
RTVSPost2010PropOp36
 70
     0
102
RTVSPost2010Prop37
 90
       50
102
RTVSPost2010PropOp37
 70
     0
102
RTVSPost2010Prop38
140
0.0
102
RTVSPost2010PropOp38
 70
     0
102
RTVSPost2010Prop39
140
1.0
102
RTVSPost2010PropOp39
 70
     0
102
RTVSPost2010Prop40
 90
        0
102
RTVSPost2010PropOp40
 70
     0
102
RTVSPost2010Prop41ColorIndex
 90
       18
102
RTVSPost2010Prop41ColorRGB
 90
        0
102
RTVSPost2010PropOp41
 70
     0
102
RTVSPost2010Prop42
 90
       50
102
RTVSPost2010PropOp42
 70
     0
102
RTVSPost2010Prop43
 90
        3
102
RTVSPost2010PropOp43
 70
     0
102
RTVSPost2010Prop44ColorIndex
 90
        5
102
RTVSPost2010Prop44ColorRGB
 90
      255
102
RTVSPost2010PropOp44
 70
     0
102
RTVSPost2010Prop45
280
     0
102
RTVSPost2010PropOp45
 70
     0
102
RTVSPost2010Prop46
 90
       50
102
RTVSPost2010PropOp46
 70
     0
102
RTVSPost2010Prop47
 90
       50
102
RTVSPost2010PropOp47
 70
     0
102
RTVSPost2010Prop48
 90
       50
102
RTVSPost2010PropOp48
 70
     0
102
RTVSPost2010Prop49
280
     0
102
RTVSPost2010PropOp49
 70
     0
102
RTVSPost2010Prop50
 90
       50
102
RTVSPost2010PropOp50
 70
     0
102
RTVSPost2010Prop51ColorIndex
 90
      256
102
RTVSPost2010Prop51ColorRGB
 90
-16777216
102
RTVSPost2010PropOp51
 70
     0
102
RTVSPost2010Prop52
140
1.0
102
RTVSPost2010PropOp52
 70
     0
102
RTVSPost2010Prop53
 90
        2
102
RTVSPost2010PropOp53
 70
     0
102
RTVSPost2010Prop54
  1
strokes_ogs.tif
102
RTVSPost2010PropOp54
 70
     0
102
RTVSPost2010Prop55
280
     0
102
RTVSPost2010PropOp55
 70
     0
102
RTVSPost2010Prop56
140
1.0
102
RTVSPost2010PropOp56
 70
     0
102
RTVSPost2010Prop57
140
1.0
102
RTVSPost2010PropOp57
 70
     0
102
RTVSPropertyOp0
 70
     0
102
RTVSPropertyOp1
 70
     0
102
RTVSPropertyOp2
 70
     0
102
RTVSPropertyOp3
 70
     0
102
RTVSPropertyOp4
 70
     0
102
RTVSPropertyOp5
 70
     0
102
RTVSPropertyOp6
 70
     0
102
RTVSPropertyOp7
 70
     0
102
RTVSPropertyOp8
 70
     0
102
RTVSPropertyOp9
 70
     0
102
RTVSPropertyOp10
 70
     0
102
RTVSPropertyOp11
 70
     0
102
RTVSPropertyOp12
 70
     0
102
RTVSPropertyOp13
 70
     0
102
RTVSPropertyOp14
 70
     2
102
RTVSPropertyOp15
 70
     0
102
RTVSPropertyOp16
 70
     0
102
RTVSPropertyOp17
 70
     0
102
RTVSPropertyOp18
 70
     0
102
RTVSPropertyOp19
 70
     0
102
RTVSPropertyOp20
 70
     0
102
RTVSPropertyOp21
 70
     0
102
RTVSPropertyOp22
 70
     0
102
RTVSPropertyOp23
 70
     0
102
RTVSPropertyOp24
 70
     0
102
RTVSPropertyOp25
 70
     0
102
RTVSPropertyOp26
 70
     0
102
RTVSPropertyOp27
 70
     0
102
RTVSPropertyOp28
 70
     0
102
RTVSPropertyOp29
 70
     0
102
RTVSPropertyOp30
 70
     0
102
RTVSPropertyOp31
 70
     0
102
RTVSPropertyOp32
 70
     0
102
RTVSPropertyOp33
 70
     0
102
RTVSPropertyOp34
 70
     0
102
RTVSPropertyOp35
 70
     0
102
RTVSPropertyOp36
 70
     0
102
RTVSPropertyOp37
 70
     0
102
RTVSPropertyOp38
 70
     0
102
RTVSPropertyOp39
 70
     0
102
RTVSPropertyOp40
 70
     0
102
RTVSPropertyOp41
 70
     0
102
RTVSPropertyOp42
 70
     0
102
RTVSPropertyOp43
 70
     0
102
RTVSPropertyOp44
 70
     0
102
RTVSPropertyOp45
 70
     0
102
RTVSPropertyOp46
 70
     0
102
RTVSPropertyOp47
 70
     0
102
RTVSPropertyOp48
 70
     0
102
RTVSPropertyOp49
 70
     0
102
RTVSPropertyOp50
 70
     0
102
RTVSPropertyOp51
 70
     0
102
RTVSPropertyOp52
 70
     0
102
RTVSPropertyOp53
 70
     0
102
RTVSPropertyOp54
 70
     0
102
RTVSPropertyOp55
 70
     0
102
RTVSPropertyOp56
 70
     0
102
RTVSPropertyOp57
 70
     0
102
RTVSPropertyOp58
 70
     0
102
RTVSPropertyOp59
 70
     0
102
RTVSPropertyOp60
 70
     0
102
RTVSPropertyOp61
 70
     0
102
RTVSPropertyOp62
 70
     0
  0
XRECORD
  5
9589
102
{ACAD_REACTORS
330
9588
102
}
330
9588
100
AcDbXrecord
280
     1
102
RTVSPost2010Prop28
280
     0
102
RTVSPost2010PropOp28
 70
     1
102
RTVSPost2010Prop29
280
     1
102
RTVSPost2010PropOp29
 70
     1
102
RTVSPost2010Prop30
280
     1
102
RTVSPost2010PropOp30
 70
     1
102
RTVSPost2010Prop31
280
     0
102
RTVSPost2010PropOp31
 70
     1
102
RTVSPost2010Prop32
280
     0
102
RTVSPost2010PropOp32
 70
     1
102
RTVSPost2010Prop33
280
     0
102
RTVSPost2010PropOp33
 70
     1
102
RTVSPost2010Prop34
280
     0
102
RTVSPost2010PropOp34
 70
     1
102
RTVSPost2010Prop35
280
     0
102
RTVSPost2010PropOp35
 70
     1
102
RTVSPost2010Prop36
280
     0
102
RTVSPost2010PropOp36
 70
     1
102
RTVSPost2010Prop37
 90
       50
102
RTVSPost2010PropOp37
 70
     1
102
RTVSPost2010Prop38
140
0.0
102
RTVSPost2010PropOp38
 70
     1
102
RTVSPost2010Prop39
140
1.0
102
RTVSPost2010PropOp39
 70
     1
102
RTVSPost2010Prop40
 90
        0
102
RTVSPost2010PropOp40
 70
     1
102
RTVSPost2010Prop41ColorIndex
 90
       18
102
RTVSPost2010Prop41ColorRGB
 90
        0
102
RTVSPost2010PropOp41
 70
     1
102
RTVSPost2010Prop42
 90
       50
102
RTVSPost2010PropOp42
 70
     1
102
RTVSPost2010Prop43
 90
        3
102
RTVSPost2010PropOp43
 70
     1
102
RTVSPost2010Prop44ColorIndex
 90
        5
102
RTVSPost2010Prop44ColorRGB
 90
      255
102
RTVSPost2010PropOp44
 70
     1
102
RTVSPost2010Prop45
280
     0
102
RTVSPost2010PropOp45
 70
     1
102
RTVSPost2010Prop46
 90
       50
102
RTVSPost2010PropOp46
 70
     1
102
RTVSPost2010Prop47
 90
       50
102
RTVSPost2010PropOp47
 70
     1
102
RTVSPost2010Prop48
 90
       50
102
RTVSPost2010PropOp48
 70
     1
102
RTVSPost2010Prop49
280
     0
102
RTVSPost2010PropOp49
 70
     1
102
RTVSPost2010Prop50
 90
       50
102
RTVSPost2010PropOp50
 70
     1
102
RTVSPost2010Prop51ColorIndex
 90
      256
102
RTVSPost2010Prop51ColorRGB
 90
-16777216
102
RTVSPost2010PropOp51
 70
     0
102
RTVSPost2010Prop52
140
1.0
102
RTVSPost2010PropOp52
 70
     0
102
RTVSPost2010Prop53
 90
        2
102
RTVSPost2010PropOp53
 70
     1
102
RTVSPost2010Prop54
  1
strokes_ogs.tif
102
RTVSPost2010PropOp54
 70
     1
102
RTVSPost2010Prop55
280
     0
102
RTVSPost2010PropOp55
 70
     1
102
RTVSPost2010Prop56
140
1.0
102
RTVSPost2010PropOp56
 70
     1
102
RTVSPost2010Prop57
140
1.0
102
RTVSPost2010PropOp57
 70
     1
102
RTVSPropertyOp0
 70
     1
102
RTVSPropertyOp1
 70
     1
102
RTVSPropertyOp2
 70
     1
102
RTVSPropertyOp3
 70
     1
102
RTVSPropertyOp4
 70
     1
102
RTVSPropertyOp5
 70
     1
102
RTVSPropertyOp6
 70
     1
102
RTVSPropertyOp7
 70
     1
102
RTVSPropertyOp8
 70
     1
102
RTVSPropertyOp9
 70
     1
102
RTVSPropertyOp10
 70
     1
102
RTVSPropertyOp11
 70
     1
102
RTVSPropertyOp12
 70
     1
102
RTVSPropertyOp13
 70
     1
102
RTVSPropertyOp14
 70
     1
102
RTVSPropertyOp15
 70
     1
102
RTVSPropertyOp16
 70
     1
102
RTVSPropertyOp17
 70
     1
102
RTVSPropertyOp18
 70
     1
102
RTVSPropertyOp19
 70
     1
102
RTVSPropertyOp20
 70
     1
102
RTVSPropertyOp21
 70
     1
102
RTVSPropertyOp22
 70
     1
102
RTVSPropertyOp23
 70
     1
102
RTVSPropertyOp24
 70
     1
102
RTVSPropertyOp25
 70
     1
102
RTVSPropertyOp26
 70
     1
102
RTVSPropertyOp27
 70
     1
102
RTVSPropertyOp28
 70
     1
102
RTVSPropertyOp29
 70
     1
102
RTVSPropertyOp30
 70
     1
102
RTVSPropertyOp31
 70
     1
102
RTVSPropertyOp32
 70
     1
102
RTVSPropertyOp33
 70
     1
102
RTVSPropertyOp34
 70
     1
102
RTVSPropertyOp35
 70
     1
102
RTVSPropertyOp36
 70
     1
102
RTVSPropertyOp37
 70
     1
102
RTVSPropertyOp38
 70
     1
102
RTVSPropertyOp39
 70
     1
102
RTVSPropertyOp40
 70
     1
102
RTVSPropertyOp41
 70
     1
102
RTVSPropertyOp42
 70
     1
102
RTVSPropertyOp43
 70
     1
102
RTVSPropertyOp44
 70
     1
102
RTVSPropertyOp45
 70
     1
102
RTVSPropertyOp46
 70
     1
102
RTVSPropertyOp47
 70
     1
102
RTVSPropertyOp48
 70
     1
102
RTVSPropertyOp49
 70
     1
102
RTVSPropertyOp50
 70
     1
102
RTVSPropertyOp51
 70
     0
102
RTVSPropertyOp52
 70
     0
102
RTVSPropertyOp53
 70
     1
102
RTVSPropertyOp54
 70
     1
102
RTVSPropertyOp55
 70
     1
102
RTVSPropertyOp56
 70
     1
102
RTVSPropertyOp57
 70
     1
102
RTVSPropertyOp58
 70
     1
102
RTVSPropertyOp59
 70
     1
102
RTVSPropertyOp60
 70
     1
102
RTVSPropertyOp61
 70
     1
102
RTVSPropertyOp62
 70
     1
  0
XRECORD
  5
95A0
102
{ACAD_REACTORS
330
959F
102
}
330
959F
100
AcDbXrecord
280
     1
102
RTVSPost2010Prop28
280
     0
102
RTVSPost2010PropOp28
 70
     0
102
RTVSPost2010Prop29
280
     1
102
RTVSPost2010PropOp29
 70
     0
102
RTVSPost2010Prop30
280
     1
102
RTVSPost2010PropOp30
 70
     0
102
RTVSPost2010Prop31
280
     0
102
RTVSPost2010PropOp31
 70
     0
102
RTVSPost2010Prop32
280
     0
102
RTVSPost2010PropOp32
 70
     0
102
RTVSPost2010Prop33
280
     0
102
RTVSPost2010PropOp33
 70
     0
102
RTVSPost2010Prop34
280
     0
102
RTVSPost2010PropOp34
 70
     0
102
RTVSPost2010Prop35
280
     0
102
RTVSPost2010PropOp35
 70
     0
102
RTVSPost2010Prop36
280
     0
102
RTVSPost2010PropOp36
 70
     0
102
RTVSPost2010Prop37
 90
       50
102
RTVSPost2010PropOp37
 70
     0
102
RTVSPost2010Prop38
140
0.0
102
RTVSPost2010PropOp38
 70
     0
102
RTVSPost2010Prop39
140
1.0
102
RTVSPost2010PropOp39
 70
     0
102
RTVSPost2010Prop40
 90
        0
102
RTVSPost2010PropOp40
 70
     0
102
RTVSPost2010Prop41ColorIndex
 90
       18
102
RTVSPost2010Prop41ColorRGB
 90
        0
102
RTVSPost2010PropOp41
 70
     0
102
RTVSPost2010Prop42
 90
       50
102
RTVSPost2010PropOp42
 70
     0
102
RTVSPost2010Prop43
 90
        3
102
RTVSPost2010PropOp43
 70
     0
102
RTVSPost2010Prop44ColorIndex
 90
        5
102
RTVSPost2010Prop44ColorRGB
 90
      255
102
RTVSPost2010PropOp44
 70
     0
102
RTVSPost2010Prop45
280
     0
102
RTVSPost2010PropOp45
 70
     0
102
RTVSPost2010Prop46
 90
       50
102
RTVSPost2010PropOp46
 70
     0
102
RTVSPost2010Prop47
 90
       50
102
RTVSPost2010PropOp47
 70
     0
102
RTVSPost2010Prop48
 90
       50
102
RTVSPost2010PropOp48
 70
     0
102
RTVSPost2010Prop49
280
     0
102
RTVSPost2010PropOp49
 70
     0
102
RTVSPost2010Prop50
 90
       50
102
RTVSPost2010PropOp50
 70
     0
102
RTVSPost2010Prop51ColorIndex
 90
      256
102
RTVSPost2010Prop51ColorRGB
 90
-16777216
102
RTVSPost2010PropOp51
 70
     0
102
RTVSPost2010Prop52
140
1.0
102
RTVSPost2010PropOp52
 70
     0
102
RTVSPost2010Prop53
 90
        2
102
RTVSPost2010PropOp53
 70
     0
102
RTVSPost2010Prop54
  1
strokes_ogs.tif
102
RTVSPost2010PropOp54
 70
     0
102
RTVSPost2010Prop55
280
     0
102
RTVSPost2010PropOp55
 70
     0
102
RTVSPost2010Prop56
140
1.0
102
RTVSPost2010PropOp56
 70
     0
102
RTVSPost2010Prop57
140
1.0
102
RTVSPost2010PropOp57
 70
     0
102
RTVSPropertyOp0
 70
     0
102
RTVSPropertyOp1
 70
     0
102
RTVSPropertyOp2
 70
     0
102
RTVSPropertyOp3
 70
     0
102
RTVSPropertyOp4
 70
     0
102
RTVSPropertyOp5
 70
     0
102
RTVSPropertyOp6
 70
     0
102
RTVSPropertyOp7
 70
     0
102
RTVSPropertyOp8
 70
     0
102
RTVSPropertyOp9
 70
     0
102
RTVSPropertyOp10
 70
     0
102
RTVSPropertyOp11
 70
     0
102
RTVSPropertyOp12
 70
     0
102
RTVSPropertyOp13
 70
     0
102
RTVSPropertyOp14
 70
     2
102
RTVSPropertyOp15
 70
     0
102
RTVSPropertyOp16
 70
     0
102
RTVSPropertyOp17
 70
     0
102
RTVSPropertyOp18
 70
     0
102
RTVSPropertyOp19
 70
     0
102
RTVSPropertyOp20
 70
     0
102
RTVSPropertyOp21
 70
     0
102
RTVSPropertyOp22
 70
     0
102
RTVSPropertyOp23
 70
     0
102
RTVSPropertyOp24
 70
     0
102
RTVSPropertyOp25
 70
     0
102
RTVSPropertyOp26
 70
     0
102
RTVSPropertyOp27
 70
     0
102
RTVSPropertyOp28
 70
     0
102
RTVSPropertyOp29
 70
     0
102
RTVSPropertyOp30
 70
     0
102
RTVSPropertyOp31
 70
     0
102
RTVSPropertyOp32
 70
     0
102
RTVSPropertyOp33
 70
     0
102
RTVSPropertyOp34
 70
     0
102
RTVSPropertyOp35
 70
     0
102
RTVSPropertyOp36
 70
     0
102
RTVSPropertyOp37
 70
     0
102
RTVSPropertyOp38
 70
     0
102
RTVSPropertyOp39
 70
     0
102
RTVSPropertyOp40
 70
     0
102
RTVSPropertyOp41
 70
     0
102
RTVSPropertyOp42
 70
     0
102
RTVSPropertyOp43
 70
     0
102
RTVSPropertyOp44
 70
     0
102
RTVSPropertyOp45
 70
     0
102
RTVSPropertyOp46
 70
     0
102
RTVSPropertyOp47
 70
     0
102
RTVSPropertyOp48
 70
     0
102
RTVSPropertyOp49
 70
     0
102
RTVSPropertyOp50
 70
     0
102
RTVSPropertyOp51
 70
     0
102
RTVSPropertyOp52
 70
     0
102
RTVSPropertyOp53
 70
     0
102
RTVSPropertyOp54
 70
     0
102
RTVSPropertyOp55
 70
     0
102
RTVSPropertyOp56
 70
     0
102
RTVSPropertyOp57
 70
     0
102
RTVSPropertyOp58
 70
     0
102
RTVSPropertyOp59
 70
     0
102
RTVSPropertyOp60
 70
     0
102
RTVSPropertyOp61
 70
     0
102
RTVSPropertyOp62
 70
     0
  0
XRECORD
  5
9581
102
{ACAD_REACTORS
330
9580
102
}
330
9580
100
AcDbXrecord
280
     1
102
RTVSPost2010Prop28
280
     0
102
RTVSPost2010PropOp28
 70
     1
102
RTVSPost2010Prop29
280
     1
102
RTVSPost2010PropOp29
 70
     1
102
RTVSPost2010Prop30
280
     1
102
RTVSPost2010PropOp30
 70
     1
102
RTVSPost2010Prop31
280
     0
102
RTVSPost2010PropOp31
 70
     1
102
RTVSPost2010Prop32
280
     0
102
RTVSPost2010PropOp32
 70
     1
102
RTVSPost2010Prop33
280
     0
102
RTVSPost2010PropOp33
 70
     1
102
RTVSPost2010Prop34
280
     0
102
RTVSPost2010PropOp34
 70
     1
102
RTVSPost2010Prop35
280
     0
102
RTVSPost2010PropOp35
 70
     1
102
RTVSPost2010Prop36
280
     0
102
RTVSPost2010PropOp36
 70
     1
102
RTVSPost2010Prop37
 90
       50
102
RTVSPost2010PropOp37
 70
     1
102
RTVSPost2010Prop38
140
0.0
102
RTVSPost2010PropOp38
 70
     1
102
RTVSPost2010Prop39
140
1.0
102
RTVSPost2010PropOp39
 70
     1
102
RTVSPost2010Prop40
 90
        0
102
RTVSPost2010PropOp40
 70
     1
102
RTVSPost2010Prop41ColorIndex
 90
       18
102
RTVSPost2010Prop41ColorRGB
 90
        0
102
RTVSPost2010PropOp41
 70
     1
102
RTVSPost2010Prop42
 90
       50
102
RTVSPost2010PropOp42
 70
     1
102
RTVSPost2010Prop43
 90
        3
102
RTVSPost2010PropOp43
 70
     1
102
RTVSPost2010Prop44ColorIndex
 90
        5
102
RTVSPost2010Prop44ColorRGB
 90
      255
102
RTVSPost2010PropOp44
 70
     1
102
RTVSPost2010Prop45
280
     0
102
RTVSPost2010PropOp45
 70
     1
102
RTVSPost2010Prop46
 90
       50
102
RTVSPost2010PropOp46
 70
     1
102
RTVSPost2010Prop47
 90
       50
102
RTVSPost2010PropOp47
 70
     1
102
RTVSPost2010Prop48
 90
       50
102
RTVSPost2010PropOp48
 70
     1
102
RTVSPost2010Prop49
280
     0
102
RTVSPost2010PropOp49
 70
     1
102
RTVSPost2010Prop50
 90
       50
102
RTVSPost2010PropOp50
 70
     1
102
RTVSPost2010Prop51ColorIndex
 90
      256
102
RTVSPost2010Prop51ColorRGB
 90
-16777216
102
RTVSPost2010PropOp51
 70
     0
102
RTVSPost2010Prop52
140
1.0
102
RTVSPost2010PropOp52
 70
     0
102
RTVSPost2010Prop53
 90
        2
102
RTVSPost2010PropOp53
 70
     1
102
RTVSPost2010Prop54
  1
strokes_ogs.tif
102
RTVSPost2010PropOp54
 70
     1
102
RTVSPost2010Prop55
280
     0
102
RTVSPost2010PropOp55
 70
     1
102
RTVSPost2010Prop56
140
1.0
102
RTVSPost2010PropOp56
 70
     1
102
RTVSPost2010Prop57
140
1.0
102
RTVSPost2010PropOp57
 70
     1
102
RTVSPropertyOp0
 70
     1
102
RTVSPropertyOp1
 70
     1
102
RTVSPropertyOp2
 70
     1
102
RTVSPropertyOp3
 70
     1
102
RTVSPropertyOp4
 70
     1
102
RTVSPropertyOp5
 70
     1
102
RTVSPropertyOp6
 70
     1
102
RTVSPropertyOp7
 70
     1
102
RTVSPropertyOp8
 70
     1
102
RTVSPropertyOp9
 70
     1
102
RTVSPropertyOp10
 70
     1
102
RTVSPropertyOp11
 70
     1
102
RTVSPropertyOp12
 70
     1
102
RTVSPropertyOp13
 70
     1
102
RTVSPropertyOp14
 70
     1
102
RTVSPropertyOp15
 70
     1
102
RTVSPropertyOp16
 70
     1
102
RTVSPropertyOp17
 70
     1
102
RTVSPropertyOp18
 70
     1
102
RTVSPropertyOp19
 70
     1
102
RTVSPropertyOp20
 70
     1
102
RTVSPropertyOp21
 70
     1
102
RTVSPropertyOp22
 70
     1
102
RTVSPropertyOp23
 70
     1
102
RTVSPropertyOp24
 70
     1
102
RTVSPropertyOp25
 70
     1
102
RTVSPropertyOp26
 70
     1
102
RTVSPropertyOp27
 70
     1
102
RTVSPropertyOp28
 70
     1
102
RTVSPropertyOp29
 70
     1
102
RTVSPropertyOp30
 70
     1
102
RTVSPropertyOp31
 70
     1
102
RTVSPropertyOp32
 70
     1
102
RTVSPropertyOp33
 70
     1
102
RTVSPropertyOp34
 70
     1
102
RTVSPropertyOp35
 70
     1
102
RTVSPropertyOp36
 70
     1
102
RTVSPropertyOp37
 70
     1
102
RTVSPropertyOp38
 70
     1
102
RTVSPropertyOp39
 70
     1
102
RTVSPropertyOp40
 70
     1
102
RTVSPropertyOp41
 70
     1
102
RTVSPropertyOp42
 70
     1
102
RTVSPropertyOp43
 70
     1
102
RTVSPropertyOp44
 70
     1
102
RTVSPropertyOp45
 70
     1
102
RTVSPropertyOp46
 70
     1
102
RTVSPropertyOp47
 70
     1
102
RTVSPropertyOp48
 70
     1
102
RTVSPropertyOp49
 70
     1
102
RTVSPropertyOp50
 70
     1
102
RTVSPropertyOp51
 70
     0
102
RTVSPropertyOp52
 70
     0
102
RTVSPropertyOp53
 70
     1
102
RTVSPropertyOp54
 70
     1
102
RTVSPropertyOp55
 70
     1
102
RTVSPropertyOp56
 70
     1
102
RTVSPropertyOp57
 70
     1
102
RTVSPropertyOp58
 70
     1
102
RTVSPropertyOp59
 70
     1
102
RTVSPropertyOp60
 70
     1
102
RTVSPropertyOp61
 70
     1
102
RTVSPropertyOp62
 70
     1
  0
XRECORD
  5
959C
102
{ACAD_REACTORS
330
959B
102
}
330
959B
100
AcDbXrecord
280
     1
102
RTVSPost2010Prop28
280
     0
102
RTVSPost2010PropOp28
 70
     1
102
RTVSPost2010Prop29
280
     1
102
RTVSPost2010PropOp29
 70
     1
102
RTVSPost2010Prop30
280
     1
102
RTVSPost2010PropOp30
 70
     1
102
RTVSPost2010Prop31
280
     0
102
RTVSPost2010PropOp31
 70
     1
102
RTVSPost2010Prop32
280
     0
102
RTVSPost2010PropOp32
 70
     1
102
RTVSPost2010Prop33
280
     0
102
RTVSPost2010PropOp33
 70
     1
102
RTVSPost2010Prop34
280
     0
102
RTVSPost2010PropOp34
 70
     1
102
RTVSPost2010Prop35
280
     0
102
RTVSPost2010PropOp35
 70
     1
102
RTVSPost2010Prop36
280
     0
102
RTVSPost2010PropOp36
 70
     1
102
RTVSPost2010Prop37
 90
       50
102
RTVSPost2010PropOp37
 70
     1
102
RTVSPost2010Prop38
140
0.0
102
RTVSPost2010PropOp38
 70
     1
102
RTVSPost2010Prop39
140
1.0
102
RTVSPost2010PropOp39
 70
     1
102
RTVSPost2010Prop40
 90
        0
102
RTVSPost2010PropOp40
 70
     1
102
RTVSPost2010Prop41ColorIndex
 90
       18
102
RTVSPost2010Prop41ColorRGB
 90
        0
102
RTVSPost2010PropOp41
 70
     1
102
RTVSPost2010Prop42
 90
       50
102
RTVSPost2010PropOp42
 70
     1
102
RTVSPost2010Prop43
 90
        3
102
RTVSPost2010PropOp43
 70
     1
102
RTVSPost2010Prop44ColorIndex
 90
        5
102
RTVSPost2010Prop44ColorRGB
 90
      255
102
RTVSPost2010PropOp44
 70
     1
102
RTVSPost2010Prop45
280
     0
102
RTVSPost2010PropOp45
 70
     1
102
RTVSPost2010Prop46
 90
       50
102
RTVSPost2010PropOp46
 70
     1
102
RTVSPost2010Prop47
 90
       50
102
RTVSPost2010PropOp47
 70
     1
102
RTVSPost2010Prop48
 90
       50
102
RTVSPost2010PropOp48
 70
     1
102
RTVSPost2010Prop49
280
     0
102
RTVSPost2010PropOp49
 70
     1
102
RTVSPost2010Prop50
 90
       50
102
RTVSPost2010PropOp50
 70
     1
102
RTVSPost2010Prop51ColorIndex
 90
      256
102
RTVSPost2010Prop51ColorRGB
 90
-16777216
102
RTVSPost2010PropOp51
 70
     0
102
RTVSPost2010Prop52
140
1.0
102
RTVSPost2010PropOp52
 70
     0
102
RTVSPost2010Prop53
 90
        2
102
RTVSPost2010PropOp53
 70
     1
102
RTVSPost2010Prop54
  1
strokes_ogs.tif
102
RTVSPost2010PropOp54
 70
     1
102
RTVSPost2010Prop55
280
     0
102
RTVSPost2010PropOp55
 70
     1
102
RTVSPost2010Prop56
140
1.0
102
RTVSPost2010PropOp56
 70
     1
102
RTVSPost2010Prop57
140
1.0
102
RTVSPost2010PropOp57
 70
     1
102
RTVSPropertyOp0
 70
     1
102
RTVSPropertyOp1
 70
     1
102
RTVSPropertyOp2
 70
     1
102
RTVSPropertyOp3
 70
     1
102
RTVSPropertyOp4
 70
     1
102
RTVSPropertyOp5
 70
     1
102
RTVSPropertyOp6
 70
     1
102
RTVSPropertyOp7
 70
     1
102
RTVSPropertyOp8
 70
     1
102
RTVSPropertyOp9
 70
     1
102
RTVSPropertyOp10
 70
     1
102
RTVSPropertyOp11
 70
     1
102
RTVSPropertyOp12
 70
     1
102
RTVSPropertyOp13
 70
     1
102
RTVSPropertyOp14
 70
     1
102
RTVSPropertyOp15
 70
     1
102
RTVSPropertyOp16
 70
     1
102
RTVSPropertyOp17
 70
     1
102
RTVSPropertyOp18
 70
     1
102
RTVSPropertyOp19
 70
     1
102
RTVSPropertyOp20
 70
     1
102
RTVSPropertyOp21
 70
     1
102
RTVSPropertyOp22
 70
     1
102
RTVSPropertyOp23
 70
     1
102
RTVSPropertyOp24
 70
     1
102
RTVSPropertyOp25
 70
     1
102
RTVSPropertyOp26
 70
     1
102
RTVSPropertyOp27
 70
     1
102
RTVSPropertyOp28
 70
     1
102
RTVSPropertyOp29
 70
     1
102
RTVSPropertyOp30
 70
     1
102
RTVSPropertyOp31
 70
     1
102
RTVSPropertyOp32
 70
     1
102
RTVSPropertyOp33
 70
     1
102
RTVSPropertyOp34
 70
     1
102
RTVSPropertyOp35
 70
     1
102
RTVSPropertyOp36
 70
     1
102
RTVSPropertyOp37
 70
     1
102
RTVSPropertyOp38
 70
     1
102
RTVSPropertyOp39
 70
     1
102
RTVSPropertyOp40
 70
     1
102
RTVSPropertyOp41
 70
     1
102
RTVSPropertyOp42
 70
     1
102
RTVSPropertyOp43
 70
     1
102
RTVSPropertyOp44
 70
     1
102
RTVSPropertyOp45
 70
     1
102
RTVSPropertyOp46
 70
     1
102
RTVSPropertyOp47
 70
     1
102
RTVSPropertyOp48
 70
     1
102
RTVSPropertyOp49
 70
     1
102
RTVSPropertyOp50
 70
     1
102
RTVSPropertyOp51
 70
     0
102
RTVSPropertyOp52
 70
     0
102
RTVSPropertyOp53
 70
     1
102
RTVSPropertyOp54
 70
     1
102
RTVSPropertyOp55
 70
     1
102
RTVSPropertyOp56
 70
     1
102
RTVSPropertyOp57
 70
     1
102
RTVSPropertyOp58
 70
     1
102
RTVSPropertyOp59
 70
     1
102
RTVSPropertyOp60
 70
     1
102
RTVSPropertyOp61
 70
     1
102
RTVSPropertyOp62
 70
     1
  0
XRECORD
  5
959A
102
{ACAD_REACTORS
330
9599
102
}
330
9599
100
AcDbXrecord
280
     1
102
RTVSPost2010Prop28
280
     0
102
RTVSPost2010PropOp28
 70
     1
102
RTVSPost2010Prop29
280
     1
102
RTVSPost2010PropOp29
 70
     1
102
RTVSPost2010Prop30
280
     1
102
RTVSPost2010PropOp30
 70
     1
102
RTVSPost2010Prop31
280
     0
102
RTVSPost2010PropOp31
 70
     1
102
RTVSPost2010Prop32
280
     0
102
RTVSPost2010PropOp32
 70
     1
102
RTVSPost2010Prop33
280
     0
102
RTVSPost2010PropOp33
 70
     1
102
RTVSPost2010Prop34
280
     0
102
RTVSPost2010PropOp34
 70
     1
102
RTVSPost2010Prop35
280
     0
102
RTVSPost2010PropOp35
 70
     1
102
RTVSPost2010Prop36
280
     0
102
RTVSPost2010PropOp36
 70
     1
102
RTVSPost2010Prop37
 90
       50
102
RTVSPost2010PropOp37
 70
     1
102
RTVSPost2010Prop38
140
0.0
102
RTVSPost2010PropOp38
 70
     1
102
RTVSPost2010Prop39
140
1.0
102
RTVSPost2010PropOp39
 70
     1
102
RTVSPost2010Prop40
 90
        0
102
RTVSPost2010PropOp40
 70
     1
102
RTVSPost2010Prop41ColorIndex
 90
       18
102
RTVSPost2010Prop41ColorRGB
 90
        0
102
RTVSPost2010PropOp41
 70
     1
102
RTVSPost2010Prop42
 90
       50
102
RTVSPost2010PropOp42
 70
     1
102
RTVSPost2010Prop43
 90
        3
102
RTVSPost2010PropOp43
 70
     1
102
RTVSPost2010Prop44ColorIndex
 90
        5
102
RTVSPost2010Prop44ColorRGB
 90
      255
102
RTVSPost2010PropOp44
 70
     1
102
RTVSPost2010Prop45
280
     0
102
RTVSPost2010PropOp45
 70
     1
102
RTVSPost2010Prop46
 90
       50
102
RTVSPost2010PropOp46
 70
     1
102
RTVSPost2010Prop47
 90
       50
102
RTVSPost2010PropOp47
 70
     1
102
RTVSPost2010Prop48
 90
       50
102
RTVSPost2010PropOp48
 70
     1
102
RTVSPost2010Prop49
280
     0
102
RTVSPost2010PropOp49
 70
     1
102
RTVSPost2010Prop50
 90
       50
102
RTVSPost2010PropOp50
 70
     1
102
RTVSPost2010Prop51ColorIndex
 90
      256
102
RTVSPost2010Prop51ColorRGB
 90
-16777216
102
RTVSPost2010PropOp51
 70
     0
102
RTVSPost2010Prop52
140
1.0
102
RTVSPost2010PropOp52
 70
     0
102
RTVSPost2010Prop53
 90
        2
102
RTVSPost2010PropOp53
 70
     1
102
RTVSPost2010Prop54
  1
strokes_ogs.tif
102
RTVSPost2010PropOp54
 70
     1
102
RTVSPost2010Prop55
280
     0
102
RTVSPost2010PropOp55
 70
     1
102
RTVSPost2010Prop56
140
1.0
102
RTVSPost2010PropOp56
 70
     1
102
RTVSPost2010Prop57
140
1.0
102
RTVSPost2010PropOp57
 70
     1
102
RTVSPropertyOp0
 70
     1
102
RTVSPropertyOp1
 70
     1
102
RTVSPropertyOp2
 70
     1
102
RTVSPropertyOp3
 70
     1
102
RTVSPropertyOp4
 70
     1
102
RTVSPropertyOp5
 70
     1
102
RTVSPropertyOp6
 70
     1
102
RTVSPropertyOp7
 70
     1
102
RTVSPropertyOp8
 70
     1
102
RTVSPropertyOp9
 70
     1
102
RTVSPropertyOp10
 70
     1
102
RTVSPropertyOp11
 70
     1
102
RTVSPropertyOp12
 70
     1
102
RTVSPropertyOp13
 70
     1
102
RTVSPropertyOp14
 70
     1
102
RTVSPropertyOp15
 70
     1
102
RTVSPropertyOp16
 70
     1
102
RTVSPropertyOp17
 70
     1
102
RTVSPropertyOp18
 70
     1
102
RTVSPropertyOp19
 70
     1
102
RTVSPropertyOp20
 70
     1
102
RTVSPropertyOp21
 70
     1
102
RTVSPropertyOp22
 70
     1
102
RTVSPropertyOp23
 70
     1
102
RTVSPropertyOp24
 70
     1
102
RTVSPropertyOp25
 70
     1
102
RTVSPropertyOp26
 70
     1
102
RTVSPropertyOp27
 70
     1
102
RTVSPropertyOp28
 70
     1
102
RTVSPropertyOp29
 70
     1
102
RTVSPropertyOp30
 70
     1
102
RTVSPropertyOp31
 70
     1
102
RTVSPropertyOp32
 70
     1
102
RTVSPropertyOp33
 70
     1
102
RTVSPropertyOp34
 70
     1
102
RTVSPropertyOp35
 70
     1
102
RTVSPropertyOp36
 70
     1
102
RTVSPropertyOp37
 70
     1
102
RTVSPropertyOp38
 70
     1
102
RTVSPropertyOp39
 70
     1
102
RTVSPropertyOp40
 70
     1
102
RTVSPropertyOp41
 70
     1
102
RTVSPropertyOp42
 70
     1
102
RTVSPropertyOp43
 70
     1
102
RTVSPropertyOp44
 70
     1
102
RTVSPropertyOp45
 70
     1
102
RTVSPropertyOp46
 70
     1
102
RTVSPropertyOp47
 70
     1
102
RTVSPropertyOp48
 70
     1
102
RTVSPropertyOp49
 70
     1
102
RTVSPropertyOp50
 70
     1
102
RTVSPropertyOp51
 70
     0
102
RTVSPropertyOp52
 70
     0
102
RTVSPropertyOp53
 70
     1
102
RTVSPropertyOp54
 70
     1
102
RTVSPropertyOp55
 70
     1
102
RTVSPropertyOp56
 70
     1
102
RTVSPropertyOp57
 70
     1
102
RTVSPropertyOp58
 70
     1
102
RTVSPropertyOp59
 70
     1
102
RTVSPropertyOp60
 70
     1
102
RTVSPropertyOp61
 70
     1
102
RTVSPropertyOp62
 70
     1
  0
XRECORD
  5
9594
102
{ACAD_REACTORS
330
9593
102
}
330
9593
100
AcDbXrecord
280
     1
102
RTVSPost2010Prop28
280
     0
102
RTVSPost2010PropOp28
 70
     1
102
RTVSPost2010Prop29
280
     1
102
RTVSPost2010PropOp29
 70
     1
102
RTVSPost2010Prop30
280
     1
102
RTVSPost2010PropOp30
 70
     1
102
RTVSPost2010Prop31
280
     0
102
RTVSPost2010PropOp31
 70
     1
102
RTVSPost2010Prop32
280
     0
102
RTVSPost2010PropOp32
 70
     1
102
RTVSPost2010Prop33
280
     0
102
RTVSPost2010PropOp33
 70
     1
102
RTVSPost2010Prop34
280
     0
102
RTVSPost2010PropOp34
 70
     1
102
RTVSPost2010Prop35
280
     0
102
RTVSPost2010PropOp35
 70
     1
102
RTVSPost2010Prop36
280
     0
102
RTVSPost2010PropOp36
 70
     1
102
RTVSPost2010Prop37
 90
       50
102
RTVSPost2010PropOp37
 70
     1
102
RTVSPost2010Prop38
140
0.0
102
RTVSPost2010PropOp38
 70
     1
102
RTVSPost2010Prop39
140
1.0
102
RTVSPost2010PropOp39
 70
     1
102
RTVSPost2010Prop40
 90
        0
102
RTVSPost2010PropOp40
 70
     1
102
RTVSPost2010Prop41ColorIndex
 90
       18
102
RTVSPost2010Prop41ColorRGB
 90
        0
102
RTVSPost2010PropOp41
 70
     1
102
RTVSPost2010Prop42
 90
       50
102
RTVSPost2010PropOp42
 70
     1
102
RTVSPost2010Prop43
 90
        3
102
RTVSPost2010PropOp43
 70
     1
102
RTVSPost2010Prop44ColorIndex
 90
        5
102
RTVSPost2010Prop44ColorRGB
 90
      255
102
RTVSPost2010PropOp44
 70
     1
102
RTVSPost2010Prop45
280
     0
102
RTVSPost2010PropOp45
 70
     1
102
RTVSPost2010Prop46
 90
       50
102
RTVSPost2010PropOp46
 70
     1
102
RTVSPost2010Prop47
 90
       50
102
RTVSPost2010PropOp47
 70
     1
102
RTVSPost2010Prop48
 90
       50
102
RTVSPost2010PropOp48
 70
     1
102
RTVSPost2010Prop49
280
     0
102
RTVSPost2010PropOp49
 70
     1
102
RTVSPost2010Prop50
 90
       50
102
RTVSPost2010PropOp50
 70
     1
102
RTVSPost2010Prop51ColorIndex
 90
      256
102
RTVSPost2010Prop51ColorRGB
 90
-16777216
102
RTVSPost2010PropOp51
 70
     0
102
RTVSPost2010Prop52
140
1.0
102
RTVSPost2010PropOp52
 70
     0
102
RTVSPost2010Prop53
 90
        2
102
RTVSPost2010PropOp53
 70
     1
102
RTVSPost2010Prop54
  1
strokes_ogs.tif
102
RTVSPost2010PropOp54
 70
     1
102
RTVSPost2010Prop55
280
     0
102
RTVSPost2010PropOp55
 70
     1
102
RTVSPost2010Prop56
140
1.0
102
RTVSPost2010PropOp56
 70
     1
102
RTVSPost2010Prop57
140
1.0
102
RTVSPost2010PropOp57
 70
     1
102
RTVSPropertyOp0
 70
     1
102
RTVSPropertyOp1
 70
     1
102
RTVSPropertyOp2
 70
     1
102
RTVSPropertyOp3
 70
     1
102
RTVSPropertyOp4
 70
     1
102
RTVSPropertyOp5
 70
     1
102
RTVSPropertyOp6
 70
     1
102
RTVSPropertyOp7
 70
     1
102
RTVSPropertyOp8
 70
     1
102
RTVSPropertyOp9
 70
     1
102
RTVSPropertyOp10
 70
     1
102
RTVSPropertyOp11
 70
     1
102
RTVSPropertyOp12
 70
     1
102
RTVSPropertyOp13
 70
     1
102
RTVSPropertyOp14
 70
     1
102
RTVSPropertyOp15
 70
     1
102
RTVSPropertyOp16
 70
     1
102
RTVSPropertyOp17
 70
     1
102
RTVSPropertyOp18
 70
     1
102
RTVSPropertyOp19
 70
     1
102
RTVSPropertyOp20
 70
     1
102
RTVSPropertyOp21
 70
     1
102
RTVSPropertyOp22
 70
     1
102
RTVSPropertyOp23
 70
     1
102
RTVSPropertyOp24
 70
     1
102
RTVSPropertyOp25
 70
     1
102
RTVSPropertyOp26
 70
     1
102
RTVSPropertyOp27
 70
     1
102
RTVSPropertyOp28
 70
     1
102
RTVSPropertyOp29
 70
     1
102
RTVSPropertyOp30
 70
     1
102
RTVSPropertyOp31
 70
     1
102
RTVSPropertyOp32
 70
     1
102
RTVSPropertyOp33
 70
     1
102
RTVSPropertyOp34
 70
     1
102
RTVSPropertyOp35
 70
     1
102
RTVSPropertyOp36
 70
     1
102
RTVSPropertyOp37
 70
     1
102
RTVSPropertyOp38
 70
     1
102
RTVSPropertyOp39
 70
     1
102
RTVSPropertyOp40
 70
     1
102
RTVSPropertyOp41
 70
     1
102
RTVSPropertyOp42
 70
     1
102
RTVSPropertyOp43
 70
     1
102
RTVSPropertyOp44
 70
     1
102
RTVSPropertyOp45
 70
     1
102
RTVSPropertyOp46
 70
     1
102
RTVSPropertyOp47
 70
     1
102
RTVSPropertyOp48
 70
     1
102
RTVSPropertyOp49
 70
     1
102
RTVSPropertyOp50
 70
     1
102
RTVSPropertyOp51
 70
     0
102
RTVSPropertyOp52
 70
     0
102
RTVSPropertyOp53
 70
     1
102
RTVSPropertyOp54
 70
     1
102
RTVSPropertyOp55
 70
     1
102
RTVSPropertyOp56
 70
     1
102
RTVSPropertyOp57
 70
     1
102
RTVSPropertyOp58
 70
     1
102
RTVSPropertyOp59
 70
     1
102
RTVSPropertyOp60
 70
     1
102
RTVSPropertyOp61
 70
     1
102
RTVSPropertyOp62
 70
     1
  0
XRECORD
  5
9596
102
{ACAD_REACTORS
330
9595
102
}
330
9595
100
AcDbXrecord
280
     1
102
RTVSPost2010Prop28
280
     0
102
RTVSPost2010PropOp28
 70
     1
102
RTVSPost2010Prop29
280
     1
102
RTVSPost2010PropOp29
 70
     1
102
RTVSPost2010Prop30
280
     1
102
RTVSPost2010PropOp30
 70
     1
102
RTVSPost2010Prop31
280
     0
102
RTVSPost2010PropOp31
 70
     1
102
RTVSPost2010Prop32
280
     0
102
RTVSPost2010PropOp32
 70
     1
102
RTVSPost2010Prop33
280
     0
102
RTVSPost2010PropOp33
 70
     1
102
RTVSPost2010Prop34
280
     0
102
RTVSPost2010PropOp34
 70
     1
102
RTVSPost2010Prop35
280
     0
102
RTVSPost2010PropOp35
 70
     1
102
RTVSPost2010Prop36
280
     0
102
RTVSPost2010PropOp36
 70
     1
102
RTVSPost2010Prop37
 90
       50
102
RTVSPost2010PropOp37
 70
     1
102
RTVSPost2010Prop38
140
0.0
102
RTVSPost2010PropOp38
 70
     1
102
RTVSPost2010Prop39
140
1.0
102
RTVSPost2010PropOp39
 70
     1
102
RTVSPost2010Prop40
 90
        0
102
RTVSPost2010PropOp40
 70
     1
102
RTVSPost2010Prop41ColorIndex
 90
       18
102
RTVSPost2010Prop41ColorRGB
 90
        0
102
RTVSPost2010PropOp41
 70
     1
102
RTVSPost2010Prop42
 90
       50
102
RTVSPost2010PropOp42
 70
     1
102
RTVSPost2010Prop43
 90
        3
102
RTVSPost2010PropOp43
 70
     1
102
RTVSPost2010Prop44ColorIndex
 90
        5
102
RTVSPost2010Prop44ColorRGB
 90
      255
102
RTVSPost2010PropOp44
 70
     1
102
RTVSPost2010Prop45
280
     0
102
RTVSPost2010PropOp45
 70
     1
102
RTVSPost2010Prop46
 90
       50
102
RTVSPost2010PropOp46
 70
     1
102
RTVSPost2010Prop47
 90
       50
102
RTVSPost2010PropOp47
 70
     1
102
RTVSPost2010Prop48
 90
       50
102
RTVSPost2010PropOp48
 70
     1
102
RTVSPost2010Prop49
280
     0
102
RTVSPost2010PropOp49
 70
     1
102
RTVSPost2010Prop50
 90
       50
102
RTVSPost2010PropOp50
 70
     1
102
RTVSPost2010Prop51ColorIndex
 90
      256
102
RTVSPost2010Prop51ColorRGB
 90
-16777216
102
RTVSPost2010PropOp51
 70
     0
102
RTVSPost2010Prop52
140
1.0
102
RTVSPost2010PropOp52
 70
     0
102
RTVSPost2010Prop53
 90
        2
102
RTVSPost2010PropOp53
 70
     1
102
RTVSPost2010Prop54
  1
strokes_ogs.tif
102
RTVSPost2010PropOp54
 70
     1
102
RTVSPost2010Prop55
280
     0
102
RTVSPost2010PropOp55
 70
     1
102
RTVSPost2010Prop56
140
1.0
102
RTVSPost2010PropOp56
 70
     1
102
RTVSPost2010Prop57
140
1.0
102
RTVSPost2010PropOp57
 70
     1
102
RTVSPropertyOp0
 70
     1
102
RTVSPropertyOp1
 70
     1
102
RTVSPropertyOp2
 70
     1
102
RTVSPropertyOp3
 70
     1
102
RTVSPropertyOp4
 70
     1
102
RTVSPropertyOp5
 70
     1
102
RTVSPropertyOp6
 70
     1
102
RTVSPropertyOp7
 70
     1
102
RTVSPropertyOp8
 70
     1
102
RTVSPropertyOp9
 70
     1
102
RTVSPropertyOp10
 70
     1
102
RTVSPropertyOp11
 70
     1
102
RTVSPropertyOp12
 70
     1
102
RTVSPropertyOp13
 70
     1
102
RTVSPropertyOp14
 70
     1
102
RTVSPropertyOp15
 70
     1
102
RTVSPropertyOp16
 70
     1
102
RTVSPropertyOp17
 70
     1
102
RTVSPropertyOp18
 70
     1
102
RTVSPropertyOp19
 70
     1
102
RTVSPropertyOp20
 70
     1
102
RTVSPropertyOp21
 70
     1
102
RTVSPropertyOp22
 70
     1
102
RTVSPropertyOp23
 70
     1
102
RTVSPropertyOp24
 70
     1
102
RTVSPropertyOp25
 70
     1
102
RTVSPropertyOp26
 70
     1
102
RTVSPropertyOp27
 70
     1
102
RTVSPropertyOp28
 70
     1
102
RTVSPropertyOp29
 70
     1
102
RTVSPropertyOp30
 70
     1
102
RTVSPropertyOp31
 70
     1
102
RTVSPropertyOp32
 70
     1
102
RTVSPropertyOp33
 70
     1
102
RTVSPropertyOp34
 70
     1
102
RTVSPropertyOp35
 70
     1
102
RTVSPropertyOp36
 70
     1
102
RTVSPropertyOp37
 70
     1
102
RTVSPropertyOp38
 70
     1
102
RTVSPropertyOp39
 70
     1
102
RTVSPropertyOp40
 70
     1
102
RTVSPropertyOp41
 70
     1
102
RTVSPropertyOp42
 70
     1
102
RTVSPropertyOp43
 70
     1
102
RTVSPropertyOp44
 70
     1
102
RTVSPropertyOp45
 70
     1
102
RTVSPropertyOp46
 70
     1
102
RTVSPropertyOp47
 70
     1
102
RTVSPropertyOp48
 70
     1
102
RTVSPropertyOp49
 70
     1
102
RTVSPropertyOp50
 70
     1
102
RTVSPropertyOp51
 70
     0
102
RTVSPropertyOp52
 70
     0
102
RTVSPropertyOp53
 70
     1
102
RTVSPropertyOp54
 70
     1
102
RTVSPropertyOp55
 70
     1
102
RTVSPropertyOp56
 70
     1
102
RTVSPropertyOp57
 70
     1
102
RTVSPropertyOp58
 70
     1
102
RTVSPropertyOp59
 70
     1
102
RTVSPropertyOp60
 70
     1
102
RTVSPropertyOp61
 70
     1
102
RTVSPropertyOp62
 70
     1
  0
XRECORD
  5
9587
102
{ACAD_REACTORS
330
9586
102
}
330
9586
100
AcDbXrecord
280
     1
102
RTVSPost2010Prop28
280
     0
102
RTVSPost2010PropOp28
 70
     1
102
RTVSPost2010Prop29
280
     1
102
RTVSPost2010PropOp29
 70
     1
102
RTVSPost2010Prop30
280
     1
102
RTVSPost2010PropOp30
 70
     1
102
RTVSPost2010Prop31
280
     0
102
RTVSPost2010PropOp31
 70
     1
102
RTVSPost2010Prop32
280
     0
102
RTVSPost2010PropOp32
 70
     1
102
RTVSPost2010Prop33
280
     0
102
RTVSPost2010PropOp33
 70
     1
102
RTVSPost2010Prop34
280
     0
102
RTVSPost2010PropOp34
 70
     1
102
RTVSPost2010Prop35
280
     0
102
RTVSPost2010PropOp35
 70
     1
102
RTVSPost2010Prop36
280
     0
102
RTVSPost2010PropOp36
 70
     1
102
RTVSPost2010Prop37
 90
       50
102
RTVSPost2010PropOp37
 70
     1
102
RTVSPost2010Prop38
140
0.0
102
RTVSPost2010PropOp38
 70
     1
102
RTVSPost2010Prop39
140
1.0
102
RTVSPost2010PropOp39
 70
     1
102
RTVSPost2010Prop40
 90
        0
102
RTVSPost2010PropOp40
 70
     1
102
RTVSPost2010Prop41ColorIndex
 90
       18
102
RTVSPost2010Prop41ColorRGB
 90
        0
102
RTVSPost2010PropOp41
 70
     1
102
RTVSPost2010Prop42
 90
       50
102
RTVSPost2010PropOp42
 70
     1
102
RTVSPost2010Prop43
 90
        3
102
RTVSPost2010PropOp43
 70
     1
102
RTVSPost2010Prop44ColorIndex
 90
        5
102
RTVSPost2010Prop44ColorRGB
 90
      255
102
RTVSPost2010PropOp44
 70
     1
102
RTVSPost2010Prop45
280
     0
102
RTVSPost2010PropOp45
 70
     1
102
RTVSPost2010Prop46
 90
       50
102
RTVSPost2010PropOp46
 70
     1
102
RTVSPost2010Prop47
 90
       50
102
RTVSPost2010PropOp47
 70
     1
102
RTVSPost2010Prop48
 90
       50
102
RTVSPost2010PropOp48
 70
     1
102
RTVSPost2010Prop49
280
     0
102
RTVSPost2010PropOp49
 70
     1
102
RTVSPost2010Prop50
 90
       50
102
RTVSPost2010PropOp50
 70
     1
102
RTVSPost2010Prop51ColorIndex
 90
      256
102
RTVSPost2010Prop51ColorRGB
 90
-16777216
102
RTVSPost2010PropOp51
 70
     0
102
RTVSPost2010Prop52
140
1.0
102
RTVSPost2010PropOp52
 70
     0
102
RTVSPost2010Prop53
 90
        2
102
RTVSPost2010PropOp53
 70
     1
102
RTVSPost2010Prop54
  1
strokes_ogs.tif
102
RTVSPost2010PropOp54
 70
     1
102
RTVSPost2010Prop55
280
     0
102
RTVSPost2010PropOp55
 70
     1
102
RTVSPost2010Prop56
140
1.0
102
RTVSPost2010PropOp56
 70
     1
102
RTVSPost2010Prop57
140
1.0
102
RTVSPost2010PropOp57
 70
     1
102
RTVSPropertyOp0
 70
     1
102
RTVSPropertyOp1
 70
     1
102
RTVSPropertyOp2
 70
     1
102
RTVSPropertyOp3
 70
     1
102
RTVSPropertyOp4
 70
     1
102
RTVSPropertyOp5
 70
     1
102
RTVSPropertyOp6
 70
     1
102
RTVSPropertyOp7
 70
     1
102
RTVSPropertyOp8
 70
     1
102
RTVSPropertyOp9
 70
     1
102
RTVSPropertyOp10
 70
     1
102
RTVSPropertyOp11
 70
     1
102
RTVSPropertyOp12
 70
     1
102
RTVSPropertyOp13
 70
     1
102
RTVSPropertyOp14
 70
     1
102
RTVSPropertyOp15
 70
     1
102
RTVSPropertyOp16
 70
     1
102
RTVSPropertyOp17
 70
     1
102
RTVSPropertyOp18
 70
     1
102
RTVSPropertyOp19
 70
     1
102
RTVSPropertyOp20
 70
     1
102
RTVSPropertyOp21
 70
     1
102
RTVSPropertyOp22
 70
     1
102
RTVSPropertyOp23
 70
     1
102
RTVSPropertyOp24
 70
     1
102
RTVSPropertyOp25
 70
     1
102
RTVSPropertyOp26
 70
     1
102
RTVSPropertyOp27
 70
     1
102
RTVSPropertyOp28
 70
     1
102
RTVSPropertyOp29
 70
     1
102
RTVSPropertyOp30
 70
     1
102
RTVSPropertyOp31
 70
     1
102
RTVSPropertyOp32
 70
     1
102
RTVSPropertyOp33
 70
     1
102
RTVSPropertyOp34
 70
     1
102
RTVSPropertyOp35
 70
     1
102
RTVSPropertyOp36
 70
     1
102
RTVSPropertyOp37
 70
     1
102
RTVSPropertyOp38
 70
     1
102
RTVSPropertyOp39
 70
     1
102
RTVSPropertyOp40
 70
     1
102
RTVSPropertyOp41
 70
     1
102
RTVSPropertyOp42
 70
     1
102
RTVSPropertyOp43
 70
     1
102
RTVSPropertyOp44
 70
     1
102
RTVSPropertyOp45
 70
     1
102
RTVSPropertyOp46
 70
     1
102
RTVSPropertyOp47
 70
     1
102
RTVSPropertyOp48
 70
     1
102
RTVSPropertyOp49
 70
     1
102
RTVSPropertyOp50
 70
     1
102
RTVSPropertyOp51
 70
     0
102
RTVSPropertyOp52
 70
     0
102
RTVSPropertyOp53
 70
     1
102
RTVSPropertyOp54
 70
     1
102
RTVSPropertyOp55
 70
     1
102
RTVSPropertyOp56
 70
     1
102
RTVSPropertyOp57
 70
     1
102
RTVSPropertyOp58
 70
     1
102
RTVSPropertyOp59
 70
     1
102
RTVSPropertyOp60
 70
     1
102
RTVSPropertyOp61
 70
     1
102
RTVSPropertyOp62
 70
     1
  0
XRECORD
  5
9590
102
{ACAD_REACTORS
330
958F
102
}
330
958F
100
AcDbXrecord
280
     1
102
RTVSPost2010Prop28
280
     0
102
RTVSPost2010PropOp28
 70
     1
102
RTVSPost2010Prop29
280
     1
102
RTVSPost2010PropOp29
 70
     1
102
RTVSPost2010Prop30
280
     1
102
RTVSPost2010PropOp30
 70
     1
102
RTVSPost2010Prop31
280
     0
102
RTVSPost2010PropOp31
 70
     1
102
RTVSPost2010Prop32
280
     0
102
RTVSPost2010PropOp32
 70
     1
102
RTVSPost2010Prop33
280
     0
102
RTVSPost2010PropOp33
 70
     1
102
RTVSPost2010Prop34
280
     0
102
RTVSPost2010PropOp34
 70
     1
102
RTVSPost2010Prop35
280
     0
102
RTVSPost2010PropOp35
 70
     1
102
RTVSPost2010Prop36
280
     0
102
RTVSPost2010PropOp36
 70
     1
102
RTVSPost2010Prop37
 90
       50
102
RTVSPost2010PropOp37
 70
     1
102
RTVSPost2010Prop38
140
0.0
102
RTVSPost2010PropOp38
 70
     1
102
RTVSPost2010Prop39
140
1.0
102
RTVSPost2010PropOp39
 70
     1
102
RTVSPost2010Prop40
 90
        0
102
RTVSPost2010PropOp40
 70
     1
102
RTVSPost2010Prop41ColorIndex
 90
       18
102
RTVSPost2010Prop41ColorRGB
 90
        0
102
RTVSPost2010PropOp41
 70
     1
102
RTVSPost2010Prop42
 90
       50
102
RTVSPost2010PropOp42
 70
     1
102
RTVSPost2010Prop43
 90
        3
102
RTVSPost2010PropOp43
 70
     1
102
RTVSPost2010Prop44ColorIndex
 90
        5
102
RTVSPost2010Prop44ColorRGB
 90
      255
102
RTVSPost2010PropOp44
 70
     1
102
RTVSPost2010Prop45
280
     0
102
RTVSPost2010PropOp45
 70
     1
102
RTVSPost2010Prop46
 90
       50
102
RTVSPost2010PropOp46
 70
     1
102
RTVSPost2010Prop47
 90
       50
102
RTVSPost2010PropOp47
 70
     1
102
RTVSPost2010Prop48
 90
       50
102
RTVSPost2010PropOp48
 70
     1
102
RTVSPost2010Prop49
280
     0
102
RTVSPost2010PropOp49
 70
     1
102
RTVSPost2010Prop50
 90
       50
102
RTVSPost2010PropOp50
 70
     1
102
RTVSPost2010Prop51ColorIndex
 90
      256
102
RTVSPost2010Prop51ColorRGB
 90
-16777216
102
RTVSPost2010PropOp51
 70
     0
102
RTVSPost2010Prop52
140
1.0
102
RTVSPost2010PropOp52
 70
     0
102
RTVSPost2010Prop53
 90
        2
102
RTVSPost2010PropOp53
 70
     1
102
RTVSPost2010Prop54
  1
strokes_ogs.tif
102
RTVSPost2010PropOp54
 70
     1
102
RTVSPost2010Prop55
280
     0
102
RTVSPost2010PropOp55
 70
     1
102
RTVSPost2010Prop56
140
1.0
102
RTVSPost2010PropOp56
 70
     1
102
RTVSPost2010Prop57
140
1.0
102
RTVSPost2010PropOp57
 70
     1
102
RTVSPropertyOp0
 70
     1
102
RTVSPropertyOp1
 70
     1
102
RTVSPropertyOp2
 70
     1
102
RTVSPropertyOp3
 70
     1
102
RTVSPropertyOp4
 70
     1
102
RTVSPropertyOp5
 70
     1
102
RTVSPropertyOp6
 70
     1
102
RTVSPropertyOp7
 70
     1
102
RTVSPropertyOp8
 70
     1
102
RTVSPropertyOp9
 70
     1
102
RTVSPropertyOp10
 70
     1
102
RTVSPropertyOp11
 70
     1
102
RTVSPropertyOp12
 70
     1
102
RTVSPropertyOp13
 70
     1
102
RTVSPropertyOp14
 70
     1
102
RTVSPropertyOp15
 70
     1
102
RTVSPropertyOp16
 70
     1
102
RTVSPropertyOp17
 70
     1
102
RTVSPropertyOp18
 70
     1
102
RTVSPropertyOp19
 70
     1
102
RTVSPropertyOp20
 70
     1
102
RTVSPropertyOp21
 70
     1
102
RTVSPropertyOp22
 70
     1
102
RTVSPropertyOp23
 70
     1
102
RTVSPropertyOp24
 70
     1
102
RTVSPropertyOp25
 70
     1
102
RTVSPropertyOp26
 70
     1
102
RTVSPropertyOp27
 70
     1
102
RTVSPropertyOp28
 70
     1
102
RTVSPropertyOp29
 70
     1
102
RTVSPropertyOp30
 70
     1
102
RTVSPropertyOp31
 70
     1
102
RTVSPropertyOp32
 70
     1
102
RTVSPropertyOp33
 70
     1
102
RTVSPropertyOp34
 70
     1
102
RTVSPropertyOp35
 70
     1
102
RTVSPropertyOp36
 70
     1
102
RTVSPropertyOp37
 70
     1
102
RTVSPropertyOp38
 70
     1
102
RTVSPropertyOp39
 70
     1
102
RTVSPropertyOp40
 70
     1
102
RTVSPropertyOp41
 70
     1
102
RTVSPropertyOp42
 70
     1
102
RTVSPropertyOp43
 70
     1
102
RTVSPropertyOp44
 70
     1
102
RTVSPropertyOp45
 70
     1
102
RTVSPropertyOp46
 70
     1
102
RTVSPropertyOp47
 70
     1
102
RTVSPropertyOp48
 70
     1
102
RTVSPropertyOp49
 70
     1
102
RTVSPropertyOp50
 70
     1
102
RTVSPropertyOp51
 70
     0
102
RTVSPropertyOp52
 70
     0
102
RTVSPropertyOp53
 70
     1
102
RTVSPropertyOp54
 70
     1
102
RTVSPropertyOp55
 70
     1
102
RTVSPropertyOp56
 70
     1
102
RTVSPropertyOp57
 70
     1
102
RTVSPropertyOp58
 70
     1
102
RTVSPropertyOp59
 70
     1
102
RTVSPropertyOp60
 70
     1
102
RTVSPropertyOp61
 70
     1
102
RTVSPropertyOp62
 70
     1
  0
XRECORD
  5
9598
102
{ACAD_REACTORS
330
9597
102
}
330
9597
100
AcDbXrecord
280
     1
102
RTVSPost2010Prop28
280
     0
102
RTVSPost2010PropOp28
 70
     1
102
RTVSPost2010Prop29
280
     1
102
RTVSPost2010PropOp29
 70
     1
102
RTVSPost2010Prop30
280
     1
102
RTVSPost2010PropOp30
 70
     1
102
RTVSPost2010Prop31
280
     0
102
RTVSPost2010PropOp31
 70
     1
102
RTVSPost2010Prop32
280
     0
102
RTVSPost2010PropOp32
 70
     1
102
RTVSPost2010Prop33
280
     0
102
RTVSPost2010PropOp33
 70
     1
102
RTVSPost2010Prop34
280
     0
102
RTVSPost2010PropOp34
 70
     1
102
RTVSPost2010Prop35
280
     0
102
RTVSPost2010PropOp35
 70
     1
102
RTVSPost2010Prop36
280
     0
102
RTVSPost2010PropOp36
 70
     1
102
RTVSPost2010Prop37
 90
       50
102
RTVSPost2010PropOp37
 70
     1
102
RTVSPost2010Prop38
140
0.0
102
RTVSPost2010PropOp38
 70
     1
102
RTVSPost2010Prop39
140
1.0
102
RTVSPost2010PropOp39
 70
     1
102
RTVSPost2010Prop40
 90
        0
102
RTVSPost2010PropOp40
 70
     1
102
RTVSPost2010Prop41ColorIndex
 90
       18
102
RTVSPost2010Prop41ColorRGB
 90
        0
102
RTVSPost2010PropOp41
 70
     1
102
RTVSPost2010Prop42
 90
       50
102
RTVSPost2010PropOp42
 70
     1
102
RTVSPost2010Prop43
 90
        3
102
RTVSPost2010PropOp43
 70
     1
102
RTVSPost2010Prop44ColorIndex
 90
        5
102
RTVSPost2010Prop44ColorRGB
 90
      255
102
RTVSPost2010PropOp44
 70
     1
102
RTVSPost2010Prop45
280
     0
102
RTVSPost2010PropOp45
 70
     1
102
RTVSPost2010Prop46
 90
       50
102
RTVSPost2010PropOp46
 70
     1
102
RTVSPost2010Prop47
 90
       50
102
RTVSPost2010PropOp47
 70
     1
102
RTVSPost2010Prop48
 90
       50
102
RTVSPost2010PropOp48
 70
     1
102
RTVSPost2010Prop49
280
     0
102
RTVSPost2010PropOp49
 70
     1
102
RTVSPost2010Prop50
 90
       50
102
RTVSPost2010PropOp50
 70
     1
102
RTVSPost2010Prop51ColorIndex
 90
      256
102
RTVSPost2010Prop51ColorRGB
 90
-16777216
102
RTVSPost2010PropOp51
 70
     0
102
RTVSPost2010Prop52
140
1.0
102
RTVSPost2010PropOp52
 70
     0
102
RTVSPost2010Prop53
 90
        2
102
RTVSPost2010PropOp53
 70
     1
102
RTVSPost2010Prop54
  1
strokes_ogs.tif
102
RTVSPost2010PropOp54
 70
     1
102
RTVSPost2010Prop55
280
     0
102
RTVSPost2010PropOp55
 70
     1
102
RTVSPost2010Prop56
140
1.0
102
RTVSPost2010PropOp56
 70
     1
102
RTVSPost2010Prop57
140
1.0
102
RTVSPost2010PropOp57
 70
     1
102
RTVSPropertyOp0
 70
     1
102
RTVSPropertyOp1
 70
     1
102
RTVSPropertyOp2
 70
     1
102
RTVSPropertyOp3
 70
     1
102
RTVSPropertyOp4
 70
     1
102
RTVSPropertyOp5
 70
     1
102
RTVSPropertyOp6
 70
     1
102
RTVSPropertyOp7
 70
     1
102
RTVSPropertyOp8
 70
     1
102
RTVSPropertyOp9
 70
     1
102
RTVSPropertyOp10
 70
     1
102
RTVSPropertyOp11
 70
     1
102
RTVSPropertyOp12
 70
     1
102
RTVSPropertyOp13
 70
     1
102
RTVSPropertyOp14
 70
     1
102
RTVSPropertyOp15
 70
     1
102
RTVSPropertyOp16
 70
     1
102
RTVSPropertyOp17
 70
     1
102
RTVSPropertyOp18
 70
     1
102
RTVSPropertyOp19
 70
     1
102
RTVSPropertyOp20
 70
     1
102
RTVSPropertyOp21
 70
     1
102
RTVSPropertyOp22
 70
     1
102
RTVSPropertyOp23
 70
     1
102
RTVSPropertyOp24
 70
     1
102
RTVSPropertyOp25
 70
     1
102
RTVSPropertyOp26
 70
     1
102
RTVSPropertyOp27
 70
     1
102
RTVSPropertyOp28
 70
     1
102
RTVSPropertyOp29
 70
     1
102
RTVSPropertyOp30
 70
     1
102
RTVSPropertyOp31
 70
     1
102
RTVSPropertyOp32
 70
     1
102
RTVSPropertyOp33
 70
     1
102
RTVSPropertyOp34
 70
     1
102
RTVSPropertyOp35
 70
     1
102
RTVSPropertyOp36
 70
     1
102
RTVSPropertyOp37
 70
     1
102
RTVSPropertyOp38
 70
     1
102
RTVSPropertyOp39
 70
     1
102
RTVSPropertyOp40
 70
     1
102
RTVSPropertyOp41
 70
     1
102
RTVSPropertyOp42
 70
     1
102
RTVSPropertyOp43
 70
     1
102
RTVSPropertyOp44
 70
     1
102
RTVSPropertyOp45
 70
     1
102
RTVSPropertyOp46
 70
     1
102
RTVSPropertyOp47
 70
     1
102
RTVSPropertyOp48
 70
     1
102
RTVSPropertyOp49
 70
     1
102
RTVSPropertyOp50
 70
     1
102
RTVSPropertyOp51
 70
     0
102
RTVSPropertyOp52
 70
     0
102
RTVSPropertyOp53
 70
     1
102
RTVSPropertyOp54
 70
     1
102
RTVSPropertyOp55
 70
     1
102
RTVSPropertyOp56
 70
     1
102
RTVSPropertyOp57
 70
     1
102
RTVSPropertyOp58
 70
     1
102
RTVSPropertyOp59
 70
     1
102
RTVSPropertyOp60
 70
     1
102
RTVSPropertyOp61
 70
     1
102
RTVSPropertyOp62
 70
     1
  0
XRECORD
  5
35F9
102
{ACAD_REACTORS
330
35F8
102
}
330
35F8
100
AcDbXrecord
280
     1
330
2F64
  0
ENDSEC
  0
EOF
